<?xml version="1.0" standalone="no"?>
<!DOCTYPE svg PUBLIC "-//W3C//DTD SVG 1.1//EN" "http://www.w3.org/Graphics/SVG/1.1/DTD/svg11.dtd" >
<svg xmlns="http://www.w3.org/2000/svg" xmlns:xlink="http://www.w3.org/1999/xlink" version="1.1">
<metadata>
Created by FontForge 20170924 at Fri Jan  1 00:00:00 1904
 By www-data
</metadata>
<defs>
<font id="DINAlternate-Medium" horiz-adv-x="1024" >
  <font-face 
    font-family="DIN Alternate Medium"
    font-weight="500"
    font-stretch="normal"
    units-per-em="2048"
    panose-1="2 2 5 0 0 0 0 0 0 0"
    ascent="1638"
    descent="-410"
    x-height="1038"
    cap-height="1458"
    bbox="-225 -432 2331 2048"
    underline-thickness="70"
    underline-position="-172"
    unicode-range="U+0020-2219"
  />
<missing-glyph horiz-adv-x="1536" 
d="M256 0v1280h1024v-1280h-1024zM1247 33v1214h-958v-1214h958z" />
    <glyph glyph-name=".notdef" horiz-adv-x="1536" 
d="M256 0v1280h1024v-1280h-1024zM1247 33v1214h-958v-1214h958z" />
    <glyph glyph-name=".null" horiz-adv-x="0" 
 />
    <glyph glyph-name="nonmarkingreturn" horiz-adv-x="0" 
 />
    <glyph glyph-name="Eth" unicode="&#xd0;" horiz-adv-x="1401" 
d="M1264 729q0 -177 -6 -259t-29 -148t-76 -129q-74 -91 -180 -142t-238 -51h-506v651h-151v170h151v637h512q262 0 412 -194q43 -56 64.5 -103.5t32.5 -109t12.5 -126t1.5 -196.5zM1042 723q0 209 -11 283t-52 129q-49 67 -111 97t-153 30h-264v-441h282v-170h-282v-454
h264q184 0 272 129q36 53 45.5 120t9.5 277z" />
    <glyph glyph-name="eth" unicode="&#xf0;" horiz-adv-x="1100" 
d="M975 510q0 -139 -26 -235t-95 -166q-114 -121 -305 -121t-303 121q-46 46 -73.5 107t-37.5 130t-10 164q0 138 25 233.5t96 167.5q77 82 213 105q33 6 69 6q43 0 86 -10l-92 166h-237v147h159l-79 143h221l80 -143h178v-147h-103l105 -193q50 -92 79 -165.5t39.5 -144.5
t10.5 -165zM766 510q0 60 -4.5 110t-19.5 93.5t-44 72.5q-58 60 -149 60q-88 0 -148 -60q-41 -43 -54 -111.5t-13 -164.5q0 -61 4.5 -110.5t19.5 -93.5t43 -73q61 -59 148 -59q90 0 149 59q29 29 44 73t19.5 93.5t4.5 110.5z" />
    <glyph glyph-name="Lslash" horiz-adv-x="1202" 
d="M1141 0h-922v545l-141 -90v190l141 88v725h221v-586l289 183v-187l-289 -182v-487h701v-199z" />
    <glyph glyph-name="lslash" horiz-adv-x="668" 
d="M602 0h-129q-142 0 -213.5 81.5t-71.5 205.5v370l-120 -73v178l120 74v622h209v-495l144 88v-177l-144 -90v-485q0 -62 26 -91.5t87 -29.5h92v-178z" />
    <glyph glyph-name="Scaron" unicode="&#x160;" horiz-adv-x="1208" 
d="M1102 416q0 -97 -38 -177.5t-109.5 -137t-166.5 -85t-210 -28.5q-167 0 -290.5 44.5t-226.5 147.5l148 146q49 -50 107.5 -82t124.5 -45t141 -13q141 0 221 59t80 165q0 99 -58 151q-26 26 -60.5 39.5t-98.5 22.5l-172 24q-178 25 -277 117q-106 99 -106 278
q0 127 59 224t169 150.5t259 53.5q147 0 254 -39.5t199 -125.5l-142 -140q-44 43 -94 67.5t-104 35t-119 10.5q-83 0 -143 -29t-91.5 -80.5t-31.5 -117.5q0 -87 55 -136q27 -23 71 -41.5t93 -25.5l166 -25q100 -15 163.5 -40.5t108.5 -67.5q119 -104 119 -299zM948 1929
l-264 -329h-176l-264 329h174l178 -198l178 198h174z" />
    <glyph glyph-name="scaron" unicode="&#x161;" horiz-adv-x="1022" 
d="M934 317q0 -106 -55 -180t-152 -111.5t-225 -37.5q-93 0 -168.5 13t-141 45t-126.5 91l137 137q105 -108 299 -108q64 0 116.5 16t81.5 48t29 79q0 112 -139 123l-166 14q-99 9 -167.5 42t-104 94t-35.5 151q0 147 111.5 232.5t279.5 85.5q251 0 385 -117l-131 -133
q-91 76 -256 76q-92 0 -140.5 -36t-48.5 -98q0 -105 144 -118l164 -15q97 -8 166.5 -42t106 -97t36.5 -154zM860 1556l-264 -329h-176l-264 329h174l178 -198l178 198h174z" />
    <glyph glyph-name="Yacute" unicode="&#xdd;" horiz-adv-x="1114" 
d="M1104 1458l-436 -858v-600h-222v600l-436 858h242l305 -641l305 641h242zM834 1932l-228 -332h-157l153 332h232z" />
    <glyph glyph-name="yacute" unicode="&#xfd;" horiz-adv-x="958" 
d="M950 1038l-458 -1245q-30 -81 -76 -129q-77 -76 -213 -76h-84v189h53q65 0 96.5 23.5t53.5 86.5l57 162l-363 989h222l247 -731l242 731h223zM758 1559l-228 -332h-157l153 332h232z" />
    <glyph glyph-name="Thorn" unicode="&#xde;" horiz-adv-x="1305" 
d="M1210 735q0 -96 -32.5 -176t-93.5 -138.5t-149.5 -92t-191.5 -33.5h-331v-295h-222v1458h222v-280h331q103 0 192 -33.5t149.5 -92.5t93 -140t32.5 -177zM987 735q0 114 -70 179t-188 65h-317v-485h317q118 0 188 64t70 177z" />
    <glyph glyph-name="thorn" unicode="&#xfe;" horiz-adv-x="1135" 
d="M1016 520q0 -98 -8 -174t-34.5 -147t-74.5 -119q-43 -43 -109 -67.5t-143 -24.5q-86 0 -152.5 27.5t-119.5 90.5v-526h-209v1878h209v-524q54 64 119.5 90.5t152.5 26.5q77 0 143.5 -25t108.5 -68q48 -48 74.5 -118.5t34.5 -146t8 -173.5zM807 520q0 106 -16 180.5
t-63.5 119t-135.5 44.5q-89 0 -137 -45t-64 -119t-16 -180t16 -180.5t64 -120t137 -45.5q128 0 171.5 91.5t43.5 254.5z" />
    <glyph glyph-name="Zcaron" horiz-adv-x="1130" 
d="M1032 0h-934v190l674 1070h-645v198h905v-180l-678 -1079h678v-199zM927 1929l-264 -329h-176l-264 329h174l178 -198l178 198h174z" />
    <glyph glyph-name="zcaron" horiz-adv-x="961" 
d="M862 0h-774v166l516 686h-487v186h745v-166l-520 -686h520v-186zM841 1556l-264 -329h-176l-264 329h174l178 -198l178 198h174z" />
    <glyph glyph-name="onehalf" unicode="&#xbd;" horiz-adv-x="1694" 
d="M1602 0h-531v141l328 381q45 53 45 107q0 51 -28.5 81.5t-80.5 30.5q-47 0 -77.5 -26t-30.5 -86h-156q0 116 74.5 185t189.5 69q118 0 192.5 -69t74.5 -185q0 -58 -21 -99t-74 -102l-247 -287h342v-141zM1204 1458l-686 -1458h-166l686 1458h166zM418 584h-158v698
l-178 -156v179l178 153h158v-874z" />
    <glyph glyph-name="onequarter" unicode="&#xbc;" horiz-adv-x="1655" 
d="M1573 125h-82v-125h-152v125h-356v145l301 604h170l-301 -604h186v170h152v-170h82v-145zM1221 1458l-686 -1458h-166l686 1458h166zM418 584h-158v698l-178 -156v179l178 153h158v-874z" />
    <glyph glyph-name="onesuperior" unicode="&#xb9;" horiz-adv-x="567" 
d="M418 584h-158v698l-178 -156v179l178 153h158v-874z" />
    <glyph glyph-name="threequarters" unicode="&#xbe;" horiz-adv-x="1729" 
d="M1647 125h-82v-125h-150v125h-356v145l299 604h172l-301 -604h186v170h150v-170h82v-145zM1307 1458l-686 -1458h-166l686 1458h166zM649 836q0 -125 -78.5 -194t-197.5 -69q-54 0 -105.5 15.5t-89.5 46t-61 79.5t-25 117h158q1 -55 36.5 -85.5t86.5 -30.5q53 0 86 33
t33 92q0 55 -32 89t-93 34h-23v135h23q56 0 85 31.5t29 80.5q0 55 -32 85t-78 30q-48 0 -78 -28.5t-33 -77.5h-156q3 76 38.5 132t95.5 85.5t133 29.5q116 0 191 -69.5t75 -179.5q0 -129 -102 -183q114 -60 114 -198z" />
    <glyph glyph-name="threesuperior" unicode="&#xb3;" horiz-adv-x="741" 
d="M649 836q0 -125 -78.5 -194t-197.5 -69q-54 0 -105.5 15.5t-89.5 46t-61 79.5t-25 117h158q1 -55 36.5 -85.5t86.5 -30.5q53 0 86 33t33 92q0 55 -32 89t-93 34h-23v135h23q56 0 85 31.5t29 80.5q0 55 -32 85t-78 30q-48 0 -78 -28.5t-33 -77.5h-156q3 76 38.5 132
t95.5 85.5t133 29.5q116 0 191 -69.5t75 -179.5q0 -129 -102 -183q114 -60 114 -198z" />
    <glyph glyph-name="twosuperior" unicode="&#xb2;" horiz-adv-x="717" 
d="M625 584h-533v141l330 381q45 53 45 106q0 51 -28.5 82t-80.5 31q-45 0 -76.5 -27t-31.5 -86h-158q0 116 75 185t191 69q118 0 192.5 -68t74.5 -186q0 -58 -21 -98.5t-74 -101.5l-247 -287h342v-141z" />
    <glyph glyph-name="brokenbar" unicode="&#xa6;" horiz-adv-x="705" 
d="M451 893h-209v717h209v-717zM451 -152h-209v717h209v-717z" />
    <glyph glyph-name="minus" unicode="&#xad;" horiz-adv-x="1092" 
d="M987 471h-883v195h883v-195z" />
    <glyph glyph-name="multiply" unicode="&#xd7;" horiz-adv-x="1092" 
d="M975 270l-131 -129l-299 297l-297 -297l-131 129l299 299l-299 299l131 131l297 -299l299 299l131 -131l-299 -299z" />
    <glyph glyph-name="space" unicode=" " horiz-adv-x="492" 
 />
    <glyph glyph-name="exclam" unicode="!" horiz-adv-x="680" 
d="M502 1458l-47 -1024h-158l-49 1024h254zM508 127q0 -55 -39 -94t-94 -39t-94 39t-39 94t39 94t94 39t94 -39t39 -94z" />
    <glyph glyph-name="quotedbl" unicode="&#x22;" horiz-adv-x="909" 
d="M750 1067h-207v391h207v-391zM367 1067h-207v391h207v-391z" />
    <glyph glyph-name="numbersign" unicode="#" horiz-adv-x="1376" 
d="M1276 872h-189l-40 -254h161v-192h-192l-68 -426h-217l68 426h-281l-65 -426h-220l68 426h-162v192h193l41 254h-166v193h194l64 401h219l-63 -401h278l64 401h217l-64 -401h160v-193zM868 872h-278l-41 -254h280z" />
    <glyph glyph-name="dollar" unicode="$" horiz-adv-x="1245" 
d="M1139 416q0 -119 -55.5 -211t-155.5 -145.5t-232 -65.5v-227h-168v221q-73 3 -134.5 14.5t-121.5 35.5t-110 58.5t-101 83.5l148 146q71 -71 152 -102.5t186 -37.5v455l-53 6q-88 12 -157 42.5t-118 74.5q-108 100 -108 278q0 117 50 208.5t145 147.5t222 68v185h168
v-183q120 -7 214.5 -46.5t176.5 -116.5l-141 -140q-104 98 -268 111v-442l70 -11q69 -11 117 -25t85 -34t70 -49q119 -104 119 -299zM547 848v426q-105 -10 -163 -71t-58 -152q0 -87 55 -136q61 -54 166 -67zM920 410q0 99 -58 151q-35 32 -74 43t-110 21v-435
q114 12 178 69t64 151z" />
    <glyph glyph-name="percent" unicode="%" horiz-adv-x="1724" 
d="M1606 266q0 -128 -81.5 -204t-205.5 -76t-205.5 76t-81.5 204v207q0 85 37.5 149t104 98t145.5 34t145.5 -34t104 -98t37.5 -149v-207zM1288 1458l-686 -1458h-168l688 1458h166zM692 985q0 -86 -38 -148.5t-102.5 -96t-145.5 -33.5q-82 0 -146.5 33.5t-102.5 96
t-38 148.5v207q0 85 37.5 149t104 98t145.5 34q123 0 204.5 -76.5t81.5 -204.5v-207zM1448 272v195q0 72 -32.5 109.5t-96.5 37.5q-129 0 -129 -147v-195q0 -147 129 -147q64 0 96.5 37.5t32.5 109.5zM535 991v195q0 72 -32.5 109.5t-96.5 37.5q-130 0 -130 -147v-195
q0 -145 130 -145q65 0 97 37t32 108z" />
    <glyph glyph-name="ampersand" unicode="&#x26;" horiz-adv-x="1495" 
d="M1401 0h-268l-119 143q-79 -66 -169 -110.5t-235 -44.5q-223 0 -347 117t-124 317q0 95 40 169.5t98 126.5t151 116q-71 81 -111.5 153t-40.5 160q0 93 44 166.5t125 115t188 41.5q103 0 181 -42t121.5 -116.5t43.5 -166.5q0 -81 -40.5 -143.5t-115.5 -114.5
q-2 0 -106 -74l307 -367q41 57 58.5 124.5t19.5 168.5h201q-3 -95 -19.5 -175.5t-48 -149.5t-78.5 -123zM778 1143q0 61 -41 103t-104 42q-67 0 -105.5 -40.5t-38.5 -102.5q0 -42 26.5 -86.5t86.5 -114.5q4 2 31 20.5t39 26.5q106 73 106 152zM889 291l-346 411
q-60 -40 -103.5 -78.5t-68.5 -86.5t-25 -111q0 -108 75.5 -178t188.5 -70q76 0 143.5 26t135.5 87z" />
    <glyph glyph-name="quotesingle" unicode="'" horiz-adv-x="526" 
d="M367 1067h-207v391h207v-391z" />
    <glyph glyph-name="parenleft" unicode="(" horiz-adv-x="649" 
d="M530 -51l-141 -142q-31 32 -65 66.5t-57 63t-44 65.5q-29 52 -38 108t-9 130v979q0 74 9 129.5t38 107.5q21 37 44 65.5t57 63.5t65 66l141 -142q-22 -22 -44.5 -44t-38.5 -42t-31 -49q-31 -58 -31 -168v-954q0 -110 31 -168q16 -30 33.5 -51.5t37 -41t43.5 -42.5z" />
    <glyph glyph-name="parenright" unicode=")" horiz-adv-x="649" 
d="M475 240q0 -75 -10 -131t-39 -107q-39 -70 -164 -195l-143 144l31 31t30 32t30 38t21 34q31 58 31 166v954q0 108 -31 166q-20 39 -46 68t-66 67l143 144q125 -125 164 -195q29 -51 39 -106.5t10 -130.5v-979z" />
    <glyph glyph-name="asterisk" unicode="*" horiz-adv-x="993" 
d="M868 954l-75 -133l-228 142l8 -269h-153l8 269l-227 -142l-76 133l235 125l-235 127l76 133l227 -141l-8 266h153l-8 -266l228 141l75 -133l-235 -127z" />
    <glyph glyph-name="plus" unicode="+" horiz-adv-x="1092" 
d="M987 461h-344v-344h-194v344h-345v194h345v342h194v-342h344v-194z" />
    <glyph glyph-name="comma" unicode="," horiz-adv-x="557" 
d="M397 -123l-237 -194v555h237v-361z" />
    <glyph glyph-name="hyphen" unicode="-" horiz-adv-x="872" 
d="M735 471h-598v195h598v-195z" />
    <glyph glyph-name="period" unicode="." horiz-adv-x="582" 
d="M440 143q0 -41 -20 -75t-54 -54t-75 -20q-60 0 -105 44t-45 105t44.5 104.5t105.5 43.5q62 0 105.5 -43.5t43.5 -104.5z" />
    <glyph glyph-name="slash" unicode="/" horiz-adv-x="778" 
d="M784 1610l-583 -1762h-201l584 1762h200z" />
    <glyph glyph-name="zero" unicode="0" horiz-adv-x="1094" 
d="M969 406q0 -127 -56 -221.5t-152.5 -145.5t-213.5 -51t-213.5 51t-152.5 146t-56 221v411q0 96 32.5 173.5t92 133t135.5 83.5t162 28t163.5 -28.5t135.5 -83.5t90.5 -133t32.5 -173v-411zM760 412v399q0 69 -25.5 123.5t-75 84.5t-112.5 30t-112.5 -30t-75 -84.5
t-25.5 -123.5v-399q0 -107 57 -172.5t156 -65.5t156 65.5t57 172.5z" />
    <glyph glyph-name="one" unicode="1" horiz-adv-x="834" 
d="M602 0h-209v995l-287 -250v232l287 246h209v-1223z" />
    <glyph glyph-name="two" unicode="2" horiz-adv-x="1081" 
d="M965 0h-879v186l496 451q141 128 141 248q0 89 -59 147t-152 58q-89 0 -152 -58.5t-63 -157.5h-209q0 117 55.5 209t153 142.5t215.5 50.5q93 0 169.5 -28t132.5 -79.5t87 -124.5t31 -157q0 -105 -55.5 -189t-169.5 -192l-338 -320h596v-186z" />
    <glyph glyph-name="three" unicode="3" horiz-adv-x="1077" 
d="M967 174q0 -135 -59 -230.5t-161.5 -144.5t-226.5 -49q-87 0 -167.5 24.5t-142.5 75t-98.5 129t-39.5 179.5h209q4 -75 37 -124.5t86 -73t116 -23.5q67 0 122 29t85.5 83.5t30.5 128.5t-27 128t-82.5 83t-136.5 29h-35v182h35q110 0 165.5 59.5t55.5 163.5q0 55 -17 98.5
t-45 70.5t-68.5 42t-84.5 15q-95 0 -153 -55.5t-66 -153.5h-209q6 120 63.5 210t152.5 137.5t212 47.5q124 0 220.5 -52t150 -144.5t53.5 -211.5q0 -223 -180 -311q98 -42 151.5 -126.5t53.5 -215.5z" />
    <glyph glyph-name="four" unicode="4" horiz-adv-x="1159" 
d="M1077 61h-174v-313h-201v313h-624v195l518 1044h223l-518 -1044h401v360h201v-360h174v-195z" />
    <glyph glyph-name="five" unicode="5" horiz-adv-x="1096" 
d="M977 252q0 -133 -25 -224t-98 -163q-115 -115 -307 -115q-100 0 -179 31t-130 82q-99 99 -113 278h209q25 -202 213 -202q98 0 153 57q29 28 44 69t19.5 86.5t4.5 100.5q0 144 -46.5 224.5t-164.5 80.5q-85 0 -137 -35.5t-72 -95.5h-188v797h784v-187h-596v-385
q39 40 100 62t140 22q168 0 262 -94q75 -74 101 -170t26 -219z" />
    <glyph glyph-name="six" unicode="6" horiz-adv-x="1102" 
d="M1008 457q0 -139 -58 -246.5t-162 -165t-237 -57.5q-204 0 -330.5 123.5t-126.5 334.5q0 108 30.5 206.5t94.5 211.5l350 627h224l-359 -621q66 35 168 35q115 0 208 -55t145.5 -156.5t52.5 -236.5zM799 451q0 80 -29.5 144.5t-86 102t-132.5 37.5q-74 0 -130 -34.5
t-87 -99.5t-31 -150q0 -86 31 -150t87.5 -98.5t129.5 -34.5t129.5 34.5t87.5 98.5t31 150z" />
    <glyph glyph-name="seven" unicode="7" horiz-adv-x="1081" 
d="M1010 1036l-566 -1282h-223l565 1282h-493v-229h-201v416h918v-187z" />
    <glyph glyph-name="eight" unicode="8" horiz-adv-x="1124" 
d="M1012 412q0 -128 -60 -225t-163 -148t-228 -51q-124 0 -227 51t-162 148t-59 225q0 119 56 203.5t144 138.5q-49 30 -89 73.5t-64.5 104t-24.5 135.5q0 89 33 164.5t92.5 129t136 81.5t164.5 28q89 0 166 -28t136 -81.5t91.5 -129t32.5 -164.5q0 -109 -48.5 -186.5
t-127.5 -126.5q88 -53 144.5 -138t56.5 -204zM778 1061q0 96 -61 159.5t-156 63.5t-156 -64t-61 -159q0 -96 60.5 -158.5t156.5 -62.5t156.5 61.5t60.5 159.5zM803 416q0 65 -32 121t-87.5 89t-122.5 33q-101 0 -170 -71t-69 -172q0 -69 31.5 -123.5t87.5 -86.5t120 -32
q66 0 122 32t88 88t32 122z" />
    <glyph glyph-name="nine" unicode="9" horiz-adv-x="1102" 
d="M1008 776q0 -105 -29 -203.5t-94 -214.5l-353 -626h-223l359 620q-70 -35 -166 -35q-84 0 -159.5 31t-132 91.5t-86.5 142.5t-30 184q0 139 58 246.5t162 165t237 57.5t237.5 -55t162 -160t57.5 -244zM799 772q0 85 -31 149.5t-87.5 99t-129.5 34.5t-129.5 -34.5
t-87.5 -99t-31 -149.5q0 -123 67 -204t181 -81q74 0 130 35t87 99.5t31 150.5z" />
    <glyph glyph-name="colon" unicode=":" horiz-adv-x="635" 
d="M492 711q0 -61 -43.5 -105.5t-104.5 -44.5t-105 45t-44 105q0 41 20 75t54 54t75 20q61 0 104.5 -43.5t43.5 -105.5zM492 143q0 -62 -43.5 -105.5t-104.5 -43.5q-41 0 -75 20t-54 54t-20 75q0 61 43.5 104.5t105.5 43.5t105 -43t43 -105z" />
    <glyph glyph-name="semicolon" unicode=";" horiz-adv-x="621" 
d="M492 711q0 -61 -43.5 -105.5t-104.5 -44.5t-105 45t-44 105q0 41 20 75t54 54t75 20q61 0 104.5 -43.5t43.5 -105.5zM463 -123l-238 -194v555h238v-361z" />
    <glyph glyph-name="less" unicode="&#x3c;" horiz-adv-x="2103" 
d="M1853 428l-800 -803l-803 803v266l702 -706v1525h199v-1525l702 706v-266z" />
    <glyph glyph-name="equal" unicode="=" horiz-adv-x="1092" 
d="M987 670h-883v194h883v-194zM987 272h-883v195h883v-195z" />
    <glyph glyph-name="greater" unicode="&#x3e;" horiz-adv-x="2103" 
d="M1855 444l-704 707v-1526h-197v1526l-704 -707v267l803 802l802 -802v-267z" />
    <glyph glyph-name="question" unicode="?" horiz-adv-x="1047" 
d="M963 1079q0 -68 -25.5 -127.5t-73.5 -124.5l-157 -221q-18 -24 -27.5 -55.5t-9.5 -54.5v-62h-209v72q0 61 15 105.5t54 97.5l160 215q64 85 64 155q0 88 -56 146.5t-145 58.5q-60 0 -105.5 -27.5t-69.5 -76t-24 -103.5h-209q0 86 30 158t87 125.5t131 81.5t160 28
t160.5 -27.5t129.5 -77.5t87.5 -124t32.5 -162zM696 127q0 -55 -39 -94t-94 -39q-56 0 -93.5 38.5t-37.5 94.5t37.5 94.5t93.5 38.5q55 0 94 -39t39 -94z" />
    <glyph glyph-name="at" unicode="@" horiz-adv-x="1507" 
d="M1376 -4l-196 4v102q-51 -59 -112.5 -87.5t-147.5 -28.5q-166 0 -269 114q-30 35 -47 71.5t-27.5 86t-14 98.5t-3.5 123q0 142 18 228.5t70 148.5q45 54 115.5 85.5t155.5 31.5q158 0 258 -115v125q0 74 -17 126.5t-59 94.5q-76 76 -217 76h-258q-140 0 -215 -76
q-45 -43 -60.5 -94t-15.5 -127v-639q0 -84 21 -130.5t81 -94.5l-143 -144q-66 55 -98.5 100t-48 108t-15.5 151v651q0 234 121 358q120 121 352 121h299q230 0 350 -121q65 -65 94 -152.5t29 -205.5v-989zM1176 479q0 97 -17 166t-64 110.5t-128 41.5q-120 0 -163.5 -83.5
t-43.5 -234.5q0 -96 16.5 -165t62.5 -109.5t128 -40.5q119 0 164 82.5t45 232.5z" />
    <glyph glyph-name="A" unicode="A" horiz-adv-x="1280" 
d="M1264 0h-236l-100 293h-576l-100 -293h-236l535 1458h178zM866 481l-221 647l-227 -647h448z" />
    <glyph glyph-name="B" unicode="B" horiz-adv-x="1358" 
d="M1221 412q0 -132 -55.5 -224.5t-156 -140t-229.5 -47.5h-590v1458h568q132 0 232.5 -48.5t154 -139t53.5 -211.5q0 -75 -27.5 -138.5t-72.5 -107t-97 -63.5q94 -36 157 -123t63 -215zM977 1051q0 65 -29.5 112.5t-83 72t-125.5 24.5h-327v-418h327q110 0 174 55t64 154z
M999 422q0 67 -28 116t-82.5 77t-128.5 28h-348v-444h348q75 0 129 28.5t82 78.5t28 116z" />
    <glyph glyph-name="C" unicode="C" horiz-adv-x="1176" 
d="M1069 160q-53 -53 -114 -92.5t-132 -59.5t-161 -20q-76 0 -143.5 17.5t-129.5 53.5t-110 84q-68 70 -98 149t-37 171.5t-7 265.5q0 133 3.5 211t16 143t41 121.5t81.5 110.5q76 76 173 115.5t210 39.5q131 0 225.5 -42.5t181.5 -129.5l-147 -149q-65 65 -121 94t-139 29
q-64 0 -120.5 -23t-95.5 -65q-29 -32 -44 -63t-25 -82.5t-13.5 -122t-3.5 -187.5q0 -219 16.5 -307.5t69.5 -147.5q39 -41 95.5 -64.5t120.5 -23.5q83 0 139 29t121 94z" />
    <glyph glyph-name="D" unicode="D" horiz-adv-x="1364" 
d="M1227 739v-73q0 -118 -9 -206t-41.5 -173t-97.5 -150q-137 -137 -377 -137h-512v1458h512q240 0 377 -137q65 -65 97.5 -146t41.5 -165t9 -197v-74zM1006 739q0 126 -4 194.5t-21.5 128.5t-52.5 99q-90 99 -248 99h-268v-1061h268q159 0 248 98q52 57 65 155t13 287z" />
    <glyph glyph-name="E" unicode="E" horiz-adv-x="1235" 
d="M1122 0h-932v1458h932v-198h-710v-426h606v-197h-606v-438h710v-199z" />
    <glyph glyph-name="F" unicode="F" horiz-adv-x="1198" 
d="M1122 1260h-710v-445h606v-199h-606v-616h-222v1458h932v-198z" />
    <glyph glyph-name="G" unicode="G" horiz-adv-x="1313" 
d="M1188 569q0 -146 -29.5 -242t-99.5 -171q-51 -54 -112 -91.5t-135 -57t-150 -19.5t-143.5 17.5t-129.5 53.5t-110 84q-68 70 -98 149t-37 171.5t-7 265.5q0 133 3.5 211t16 143t41 121.5t81.5 110.5q155 155 383 155q97 0 172 -20.5t138 -62.5t130 -109l-150 -150
q-76 77 -137.5 110.5t-152.5 33.5q-63 0 -121.5 -24.5t-96.5 -65.5q-53 -59 -69.5 -147t-16.5 -306q0 -219 16.5 -307.5t69.5 -147.5q83 -88 218 -88q144 0 233 103q72 80 72 231v80h-305v188h526v-219z" />
    <glyph glyph-name="H" unicode="H" horiz-adv-x="1415" 
d="M1225 0h-221v637h-592v-637h-222v1458h222v-622h592v622h221v-1458z" />
    <glyph glyph-name="I" unicode="I" horiz-adv-x="602" 
d="M412 0h-222v1458h222v-1458z" />
    <glyph glyph-name="J" unicode="J" horiz-adv-x="1036" 
d="M866 461q0 -148 -64.5 -254.5t-175.5 -162.5t-245 -56q-72 0 -135.5 14.5t-116 45.5t-102.5 81l147 145q47 -45 90 -66.5t117 -21.5q82 0 141.5 33.5t91 99t31.5 158.5v981h221v-997z" />
    <glyph glyph-name="K" unicode="K" horiz-adv-x="1348" 
d="M1327 0h-260l-410 719l-245 -295v-424h-222v1458h222v-733l596 733h270l-473 -571z" />
    <glyph glyph-name="L" unicode="L" horiz-adv-x="1176" 
d="M1114 0h-924v1458h222v-1259h702v-199z" />
    <glyph glyph-name="M" unicode="M" horiz-adv-x="1665" 
d="M1477 0h-222v975l-335 -711h-164l-344 711v-975h-222v1458h222l426 -907l417 907h222v-1458z" />
    <glyph glyph-name="N" unicode="N" horiz-adv-x="1479" 
d="M1288 0h-203l-673 1026v-1026h-222v1458h203l674 -1024v1024h221v-1458z" />
    <glyph glyph-name="O" unicode="O" horiz-adv-x="1323" 
d="M1186 729q0 -173 -6.5 -264.5t-36.5 -172t-96 -149.5q-157 -155 -385 -155t-383 155q-68 70 -98 149t-37 171.5t-7 265.5q0 133 3.5 211t16 143t41 121.5t81.5 110.5q155 155 383 155t385 -155q67 -70 96.5 -149.5t36 -171.5t6.5 -265zM965 729q0 218 -16.5 307
t-69.5 146q-38 41 -96.5 65.5t-120.5 24.5q-63 0 -121.5 -24.5t-96.5 -65.5q-53 -59 -69.5 -147t-16.5 -306q0 -116 3.5 -185.5t13.5 -121.5t24 -81t45 -65q40 -42 97.5 -66t120.5 -24q132 0 217 90q36 39 54.5 89t25 136t6.5 228z" />
    <glyph glyph-name="P" unicode="P" horiz-adv-x="1288" 
d="M1210 1016q0 -127 -57 -227.5t-164 -158t-246 -57.5h-331v-573h-222v1458h553q103 0 192 -33.5t150 -93t93 -139t32 -176.5zM989 1016q0 114 -70.5 179t-187.5 65h-319v-486h319q118 0 188 64.5t70 177.5z" />
    <glyph glyph-name="Q" unicode="Q" horiz-adv-x="1323" 
d="M1235 57l-123 -123l-145 146q-129 -92 -305 -92q-228 0 -383 155q-68 70 -98 149t-37 171.5t-7 265.5q0 133 3.5 211t16 143t41 121.5t81.5 110.5q155 155 383 155t385 -155q67 -70 96.5 -149.5t36 -171.5t6.5 -265q0 -154 -4.5 -236.5t-24.5 -157t-65 -136.5zM965 729
q0 218 -16.5 307t-69.5 146q-38 41 -96.5 65.5t-120.5 24.5q-63 0 -121.5 -24.5t-96.5 -65.5q-53 -59 -69.5 -147t-16.5 -306q0 -116 3.5 -185.5t13.5 -121.5t24 -81t45 -65q40 -42 97.5 -66t120.5 -24q82 0 149 47l-154 154l123 123l142 -141q26 54 34.5 133.5t8.5 226.5z
" />
    <glyph glyph-name="R" unicode="R" horiz-adv-x="1341" 
d="M1253 0h-258l-307 614h-276v-614h-222v1458h566q134 0 237.5 -54.5t159 -151t55.5 -220.5q0 -150 -80.5 -250.5t-209.5 -136.5zM987 1030q0 107 -67.5 168.5t-180.5 61.5h-327v-457h327q112 0 180 61t68 166z" />
    <glyph glyph-name="S" unicode="S" horiz-adv-x="1208" 
d="M1102 416q0 -97 -38 -177.5t-109.5 -137t-166.5 -85t-210 -28.5q-167 0 -290.5 44.5t-226.5 147.5l148 146q49 -50 107.5 -82t124.5 -45t141 -13q141 0 221 59t80 165q0 99 -58 151q-26 26 -60.5 39.5t-98.5 22.5l-172 24q-178 25 -277 117q-106 99 -106 278
q0 127 59 224t169 150.5t259 53.5q147 0 254 -39.5t199 -125.5l-142 -140q-44 43 -94 67.5t-104 35t-119 10.5q-83 0 -143 -29t-91.5 -80.5t-31.5 -117.5q0 -87 55 -136q27 -23 71 -41.5t93 -25.5l166 -25q100 -15 163.5 -40.5t108.5 -67.5q119 -104 119 -299z" />
    <glyph glyph-name="T" unicode="T" horiz-adv-x="1147" 
d="M1085 1260h-401v-1260h-221v1260h-402v198h1024v-198z" />
    <glyph glyph-name="U" unicode="U" horiz-adv-x="1382" 
d="M1214 492q0 -148 -68 -263t-187.5 -178t-268.5 -63q-148 0 -267 63t-187 178t-68 263v966h221v-956q0 -96 37 -167.5t105 -110t159 -38.5t159.5 38.5t106 109.5t37.5 168v956h221v-966z" />
    <glyph glyph-name="V" unicode="V" horiz-adv-x="1155" 
d="M1145 1458l-483 -1458h-173l-479 1458h230l335 -1061l336 1061h234z" />
    <glyph glyph-name="W" unicode="W" horiz-adv-x="1784" 
d="M1761 1458l-381 -1458h-192l-297 1022l-295 -1022h-193l-380 1458h233l254 -1042l293 1042h178l293 -1042l254 1042h233z" />
    <glyph glyph-name="X" unicode="X" horiz-adv-x="1184" 
d="M1163 0h-256l-317 559l-316 -559h-254l451 748l-422 710h254l287 -522l289 522h254l-422 -710z" />
    <glyph glyph-name="Y" unicode="Y" horiz-adv-x="1114" 
d="M1104 1458l-436 -858v-600h-222v600l-436 858h242l305 -641l305 641h242z" />
    <glyph glyph-name="Z" unicode="Z" horiz-adv-x="1130" 
d="M1032 0h-934v190l674 1070h-645v198h905v-180l-678 -1079h678v-199z" />
    <glyph glyph-name="bracketleft" unicode="[" horiz-adv-x="711" 
d="M623 -152h-447v1762h447v-187h-238v-1388h238v-187z" />
    <glyph glyph-name="backslash" unicode="\" horiz-adv-x="778" 
d="M778 -152h-200l-578 1745h201z" />
    <glyph glyph-name="bracketright" unicode="]" horiz-adv-x="711" 
d="M535 -152h-447v185h242v1392h-242v185h447v-1762z" />
    <glyph glyph-name="asciicircum" unicode="^" horiz-adv-x="1169" 
d="M1030 821h-217l-229 424l-230 -424h-217l352 652h191z" />
    <glyph glyph-name="underscore" unicode="_" horiz-adv-x="1169" 
d="M1169 -352h-1169v143h1169v-143z" />
    <glyph glyph-name="grave" unicode="`" 
d="M618 1227h-157l-228 332h232z" />
    <glyph glyph-name="a" unicode="a" horiz-adv-x="1085" 
d="M930 0h-205v94q-57 -57 -119 -81.5t-157 -24.5q-94 0 -163 23.5t-116 70.5q-82 85 -82 223q0 89 41 156.5t121.5 105t195.5 37.5h275v74q0 100 -54 147t-173 47q-87 0 -135.5 -22t-92.5 -78l-137 129q71 84 156 117t217 33q428 0 428 -357v-694zM721 375v84h-244
q-91 0 -138.5 -39t-47.5 -111q0 -147 190 -147q67 0 112 11.5t83 47.5q45 45 45 154z" />
    <glyph glyph-name="b" unicode="b" horiz-adv-x="1133" 
d="M1016 520q0 -98 -8 -174t-34.5 -147t-74.5 -119q-42 -42 -109 -67t-145 -25q-88 0 -152.5 27t-121.5 96v-111h-205v1458h209v-524q54 64 119.5 90.5t152.5 26.5q77 0 143.5 -25t108.5 -68q48 -48 74.5 -118.5t34.5 -146t8 -173.5zM807 520q0 106 -16 180.5t-63.5 119
t-135.5 44.5q-89 0 -137 -45t-64 -119t-16 -180t16 -180.5t64 -120t137 -45.5q128 0 171.5 91.5t43.5 254.5z" />
    <glyph glyph-name="c" unicode="c" horiz-adv-x="993" 
d="M918 135q-47 -50 -100 -83.5t-112 -48.5t-131 -15q-122 0 -227.5 54t-170 174t-64.5 304q0 141 38 243t103 166t148 93t173 29q110 0 190.5 -34t152.5 -112l-144 -139q-48 54 -92 76t-107 22q-122 0 -192 -92q-34 -43 -47.5 -101t-13.5 -151q0 -175 61 -254
q70 -92 192 -92q61 0 106 22.5t93 75.5z" />
    <glyph glyph-name="d" unicode="d" horiz-adv-x="1133" 
d="M967 0h-205v111q-39 -48 -80 -74t-88 -37.5t-107 -11.5q-77 0 -143.5 25t-110.5 67q-49 49 -74.5 119.5t-33.5 146.5t-8 174t8 173.5t33.5 145.5t74.5 119q44 44 110 68.5t142 24.5q87 0 152.5 -26t120.5 -91v524h209v-1458zM758 520q0 106 -16 180.5t-63.5 119
t-135.5 44.5q-89 0 -137 -45t-64 -119t-16 -180t16 -180.5t64 -120t137 -45.5q128 0 171.5 91.5t43.5 254.5z" />
    <glyph glyph-name="e" unicode="e" horiz-adv-x="1104" 
d="M993 459h-674q0 -91 31 -155.5t89.5 -100t144.5 -35.5t139 24t113 82l133 -124q-85 -85 -172 -123.5t-217 -38.5q-100 0 -185.5 29t-148.5 92t-98 165t-35 246q0 167 54.5 286t153.5 182t232 63q136 0 236 -63t152 -176.5t52 -260.5v-92zM786 604q-3 81 -28 141t-78.5 96
t-126.5 36q-72 0 -126.5 -36t-80.5 -96q-14 -32 -18.5 -56.5t-8.5 -84.5h467z" />
    <glyph glyph-name="f" unicode="f" horiz-adv-x="672" 
d="M614 860h-206v-860h-209v860h-119v160h119v160q0 77 31.5 143t95.5 105.5t157 39.5h131v-178h-92q-114 0 -114 -121v-149h206v-160z" />
    <glyph glyph-name="g" unicode="g" horiz-adv-x="1124" 
d="M958 6q0 -128 -53.5 -226.5t-153.5 -155t-237 -56.5q-80 0 -142 13.5t-116.5 44t-108.5 79.5l134 133q54 -49 103.5 -70.5t121.5 -21.5q124 0 184 75t60 189v133q-54 -64 -119 -91t-150 -27q-74 0 -139 24t-109 68q-70 70 -93 170t-23 252q0 151 23.5 252t92.5 170
q43 43 107 66.5t143 23.5q87 0 151.5 -27t121.5 -96v110h202v-1032zM750 539q0 150 -41.5 237.5t-169.5 87.5q-129 0 -171 -87t-42 -238t42 -238.5t171 -87.5q128 0 169.5 88t41.5 238z" />
    <glyph glyph-name="h" unicode="h" horiz-adv-x="1159" 
d="M1004 0h-209v637q0 114 -58 170.5t-151 56.5t-152 -57.5t-59 -169.5v-637h-209v1458h209v-524q106 117 268 117q112 0 194 -47.5t124.5 -133.5t42.5 -200v-670z" />
    <glyph glyph-name="i" unicode="i" horiz-adv-x="541" 
d="M406 1376q0 -55 -41 -95t-95 -40q-53 0 -94 41t-41 94q0 55 40 95t95 40q56 0 96 -39t40 -96zM375 0h-209v1038h209v-1038z" />
    <glyph glyph-name="j" unicode="j" horiz-adv-x="541" 
d="M406 1376q0 -55 -41 -95t-95 -40q-53 0 -94 41t-41 94q0 55 40 95t95 40q56 0 96 -39t40 -96zM375 -137q0 -126 -71.5 -206.5t-213.5 -80.5h-129v178h92q61 0 87 29.5t26 91.5v1163h209v-1175z" />
    <glyph glyph-name="k" unicode="k" horiz-adv-x="1122" 
d="M1077 0h-258l-291 479l-153 -174v-305h-209v1458h209v-899l403 479h254l-360 -407z" />
    <glyph glyph-name="l" unicode="l" horiz-adv-x="637" 
d="M573 0h-129q-140 0 -212 81t-72 206v1171h209v-1159q0 -62 25 -91.5t87 -29.5h92v-178z" />
    <glyph glyph-name="m" unicode="m" horiz-adv-x="1796" 
d="M1640 0h-208v633q0 117 -58 174t-151 57q-90 0 -152.5 -58t-62.5 -163v-643h-209v633q0 78 -27.5 130t-74.5 76.5t-107 24.5q-94 0 -154.5 -58.5t-60.5 -172.5v-633h-209v1038h205v-104q51 56 123 86.5t153 30.5q196 0 295 -152q125 152 326 152q164 0 262 -95
q110 -106 110 -292v-664z" />
    <glyph glyph-name="n" unicode="n" horiz-adv-x="1163" 
d="M1008 0h-209v633q0 78 -27.5 130t-74.5 76.5t-107 24.5q-94 0 -154.5 -58.5t-60.5 -172.5v-633h-209v1038h205v-104q52 57 125 87t151 30q159 0 256 -95q105 -101 105 -292v-664z" />
    <glyph glyph-name="o" unicode="o" horiz-adv-x="1100" 
d="M983 520q0 -144 -26 -240t-97 -169q-118 -123 -311 -123q-191 0 -309 123q-70 73 -96.5 169.5t-26.5 239.5q0 140 27 238t96 170q34 36 79 63t104.5 43.5t125.5 16.5q103 0 181 -34t130 -89q70 -73 96.5 -169.5t26.5 -238.5zM774 520q0 102 -14 171.5t-58 113.5
q-57 59 -153 59q-93 0 -152 -59q-43 -44 -57 -113.5t-14 -171.5q0 -101 14 -170.5t57 -113.5q62 -62 152 -62q93 0 153 62q44 44 58 113.5t14 170.5z" />
    <glyph glyph-name="p" unicode="p" horiz-adv-x="1133" 
d="M1016 520q0 -98 -8 -174t-34.5 -147t-74.5 -119q-43 -43 -109 -67.5t-143 -24.5q-86 0 -152.5 27.5t-119.5 90.5v-526h-209v1458h205v-110q57 69 121.5 96t152.5 27q78 0 145.5 -25t108.5 -68q48 -48 74.5 -118.5t34.5 -146t8 -173.5zM807 520q0 106 -16 180.5t-63.5 119
t-135.5 44.5q-89 0 -137 -45t-64 -119t-16 -180t16 -180.5t64 -120t137 -45.5q128 0 171.5 91.5t43.5 254.5z" />
    <glyph glyph-name="q" unicode="q" horiz-adv-x="1133" 
d="M967 -420h-209v526q-36 -43 -78.5 -69.5t-89 -37.5t-105.5 -11q-76 0 -141.5 24.5t-110.5 67.5q-49 49 -74.5 119.5t-33.5 146.5t-8 174t8 173.5t33.5 145.5t74.5 119q43 43 110 68t144 25q89 0 153.5 -27t121.5 -96v110h205v-1458zM758 520q0 106 -16 180.5t-63.5 119
t-135.5 44.5q-89 0 -137 -45t-64 -119t-16 -180t16 -180.5t64 -120t137 -45.5q128 0 171.5 91.5t43.5 254.5z" />
    <glyph glyph-name="r" unicode="r" horiz-adv-x="899" 
d="M895 952l-158 -157q-36 37 -69 53t-86 16q-56 0 -103.5 -29t-75.5 -81.5t-28 -122.5v-631h-209v1038h205v-112q41 57 115.5 91t160.5 34q77 0 135.5 -22.5t112.5 -76.5z" />
    <glyph glyph-name="s" unicode="s" horiz-adv-x="1022" 
d="M934 317q0 -106 -55 -180t-152 -111.5t-225 -37.5q-93 0 -168.5 13t-141 45t-126.5 91l137 137q105 -108 299 -108q64 0 116.5 16t81.5 48t29 79q0 112 -139 123l-166 14q-99 9 -167.5 42t-104 94t-35.5 151q0 147 111.5 232.5t279.5 85.5q251 0 385 -117l-131 -133
q-91 76 -256 76q-92 0 -140.5 -36t-48.5 -98q0 -105 144 -118l164 -15q97 -8 166.5 -42t106 -97t36.5 -154z" />
    <glyph glyph-name="t" unicode="t" horiz-adv-x="700" 
d="M600 0h-125q-92 0 -156.5 40t-96.5 105.5t-32 143.5v571h-118v160h118v315h209v-315h201v-160h-201v-561q0 -121 115 -121h86v-178z" />
    <glyph glyph-name="u" unicode="u" horiz-adv-x="1163" 
d="M997 0h-204v104q-53 -56 -125.5 -86t-151.5 -30q-157 0 -256 94q-57 56 -80.5 127.5t-23.5 165.5v663h209v-632q0 -116 58 -174t150 -58q94 0 154.5 58.5t60.5 173.5v632h209v-1038z" />
    <glyph glyph-name="v" unicode="v" horiz-adv-x="965" 
d="M948 1038l-381 -1038h-170l-381 1038h222l245 -731l244 731h221z" />
    <glyph glyph-name="w" unicode="w" horiz-adv-x="1522" 
d="M1505 1038l-323 -1038h-178l-244 725l-242 -725h-180l-322 1038h222l200 -731l242 731h162l239 -731l201 731h223z" />
    <glyph glyph-name="x" unicode="x" horiz-adv-x="1030" 
d="M985 0h-252l-217 354l-219 -354h-252l356 530l-342 508h252l205 -338l203 338h252l-340 -508z" />
    <glyph glyph-name="y" unicode="y" horiz-adv-x="958" 
d="M950 1038l-458 -1245q-30 -81 -76 -129q-77 -76 -213 -76h-84v189h53q65 0 96.5 23.5t53.5 86.5l57 162l-363 989h222l247 -731l242 731h223z" />
    <glyph glyph-name="z" unicode="z" horiz-adv-x="961" 
d="M862 0h-774v166l516 686h-487v186h745v-166l-520 -686h520v-186z" />
    <glyph glyph-name="braceleft" unicode="{" horiz-adv-x="834" 
d="M741 -152h-145q-149 0 -219 70q-40 42 -57 91.5t-17 123.5v342q0 86 -37 123q-37 39 -98 39h-76v184h76q59 0 98 39q37 37 37 123v342q0 76 17.5 126t56.5 89q70 70 219 70h145v-187h-79q-94 0 -119 -28q-31 -31 -31 -131v-330q0 -90 -36.5 -133.5t-98.5 -71.5
q61 -26 98 -70t37 -135v-329q0 -101 31 -132q25 -28 119 -28h79v-187z" />
    <glyph glyph-name="bar" unicode="|" horiz-adv-x="692" 
d="M451 -152h-209v1762h209v-1762z" />
    <glyph glyph-name="braceright" unicode="}" horiz-adv-x="834" 
d="M741 637h-73q-62 0 -101 -39q-37 -39 -37 -123v-342q0 -74 -16.5 -124.5t-56.5 -90.5q-70 -70 -219 -70h-146v187h80q92 0 119 28q31 32 31 132v329q0 90 37.5 134.5t99.5 70.5q-64 29 -100.5 72.5t-36.5 132.5v330q0 99 -31 131q-27 28 -119 28h-80v187h146
q149 0 219 -70q39 -38 56 -88.5t17 -126.5v-342q0 -84 37 -123q41 -39 101 -39h73v-184z" />
    <glyph glyph-name="asciitilde" unicode="~" horiz-adv-x="1176" 
d="M1087 573q-91 -91 -157 -125t-146 -34q-52 0 -104.5 16.5t-124.5 50.5q-96 49 -162 49q-46 0 -81.5 -16.5t-92.5 -73.5l-131 131q59 59 107 94.5t93 50.5t101 15q58 0 110.5 -17.5t116.5 -49.5q21 -10 38.5 -18t45 -17t42 -12t38.5 -3q47 0 83 17.5t91 73.5z" />
    <glyph glyph-name="Adieresis" unicode="&#xc4;" horiz-adv-x="1280" 
d="M1264 0h-236l-100 293h-576l-100 -293h-236l535 1458h178zM866 481l-221 647l-227 -647h448zM973 1719q0 -47 -33 -82t-82 -35q-46 0 -81 35t-35 82t35 80.5t81 33.5q48 0 81.5 -33.5t33.5 -80.5zM524 1719q0 -47 -34 -82t-82 -35t-81.5 35t-33.5 82q0 46 34 80t81 34
t81.5 -33.5t34.5 -80.5z" />
    <glyph glyph-name="Aring" unicode="&#xc5;" horiz-adv-x="1280" 
d="M1264 0h-236l-100 293h-576l-100 -293h-236l535 1458h178zM866 481l-221 647l-227 -647h448zM889 1792q0 -69 -34.5 -128t-93.5 -93.5t-128 -34.5t-128 34.5t-93.5 93.5t-34.5 128t34.5 128t93.5 93.5t128 34.5t128 -34.5t93.5 -93.5t34.5 -128zM764 1792
q0 54 -37.5 91.5t-93.5 37.5q-55 0 -93 -38t-38 -91q0 -52 38.5 -90.5t92.5 -38.5q55 0 93 38t38 91z" />
    <glyph glyph-name="Ccedilla" unicode="&#xc7;" horiz-adv-x="1229" 
d="M1069 160q-53 -53 -114 -92.5t-132 -59.5t-161 -20q-76 0 -143.5 17.5t-129.5 53.5t-110 84q-68 70 -98 149t-37 171.5t-7 265.5q0 133 3.5 211t16 143t41 121.5t81.5 110.5q76 76 173 115.5t210 39.5q131 0 225.5 -42.5t181.5 -129.5l-147 -149q-65 65 -121 94t-139 29
q-64 0 -120.5 -23t-95.5 -65q-29 -32 -44 -63t-25 -82.5t-13.5 -122t-3.5 -187.5q0 -219 16.5 -307.5t69.5 -147.5q39 -41 95.5 -64.5t120.5 -23.5q83 0 139 29t121 94zM766 -131l-104 -301h-207l143 301h168z" />
    <glyph glyph-name="Eacute" unicode="&#xc9;" horiz-adv-x="1235" 
d="M1122 0h-932v1458h932v-198h-710v-426h606v-197h-606v-438h710v-199zM916 1932l-228 -332h-157l153 332h232z" />
    <glyph glyph-name="Ntilde" unicode="&#xd1;" horiz-adv-x="1477" 
d="M1288 0h-203l-673 1026v-1026h-222v1458h203l674 -1024v1024h221v-1458zM1085 1739q-44 -44 -80 -69t-66.5 -34.5t-66.5 -9.5q-41 0 -73.5 10.5t-79.5 36.5q-66 39 -115 39q-31 0 -55.5 -11t-63.5 -50l-98 96q64 64 112 88.5t101 24.5q69 0 153 -49q64 -39 113 -39
q29 0 56 12.5t65 50.5z" />
    <glyph glyph-name="Odieresis" unicode="&#xd6;" horiz-adv-x="1323" 
d="M1186 729q0 -173 -6.5 -264.5t-36.5 -172t-96 -149.5q-157 -155 -385 -155t-383 155q-68 70 -98 149t-37 171.5t-7 265.5q0 133 3.5 211t16 143t41 121.5t81.5 110.5q155 155 383 155t385 -155q67 -70 96.5 -149.5t36 -171.5t6.5 -265zM965 729q0 218 -16.5 307
t-69.5 146q-38 41 -96.5 65.5t-120.5 24.5q-63 0 -121.5 -24.5t-96.5 -65.5q-53 -59 -69.5 -147t-16.5 -306q0 -116 3.5 -185.5t13.5 -121.5t24 -81t45 -65q40 -42 97.5 -66t120.5 -24q132 0 217 90q36 39 54.5 89t25 136t6.5 228zM1002 1719q0 -47 -33 -82t-82 -35
q-46 0 -81 35t-35 82t35 80.5t81 33.5q48 0 81.5 -33.5t33.5 -80.5zM553 1719q0 -47 -34 -82t-82 -35t-81.5 35t-33.5 82q0 46 34 80t81 34t81.5 -33.5t34.5 -80.5z" />
    <glyph glyph-name="Udieresis" unicode="&#xdc;" horiz-adv-x="1382" 
d="M1214 492q0 -148 -68 -263t-187.5 -178t-268.5 -63q-148 0 -267 63t-187 178t-68 263v966h221v-956q0 -96 37 -167.5t105 -110t159 -38.5t159.5 38.5t106 109.5t37.5 168v956h221v-966zM1032 1719q0 -47 -33 -82t-82 -35q-46 0 -81 35t-35 82t35 80.5t81 33.5
q48 0 81.5 -33.5t33.5 -80.5zM583 1719q0 -47 -34 -82t-82 -35t-81.5 35t-33.5 82q0 46 34 80t81 34t81.5 -33.5t34.5 -80.5z" />
    <glyph glyph-name="aacute" unicode="&#xe1;" horiz-adv-x="1085" 
d="M930 0h-205v94q-57 -57 -119 -81.5t-157 -24.5q-94 0 -163 23.5t-116 70.5q-82 85 -82 223q0 89 41 156.5t121.5 105t195.5 37.5h275v74q0 100 -54 147t-173 47q-87 0 -135.5 -22t-92.5 -78l-137 129q71 84 156 117t217 33q428 0 428 -357v-694zM721 375v84h-244
q-91 0 -138.5 -39t-47.5 -111q0 -147 190 -147q67 0 112 11.5t83 47.5q45 45 45 154zM805 1559l-228 -332h-157l153 332h232z" />
    <glyph glyph-name="agrave" unicode="&#xe0;" horiz-adv-x="1085" 
d="M930 0h-205v94q-57 -57 -119 -81.5t-157 -24.5q-94 0 -163 23.5t-116 70.5q-82 85 -82 223q0 89 41 156.5t121.5 105t195.5 37.5h275v74q0 100 -54 147t-173 47q-87 0 -135.5 -22t-92.5 -78l-137 129q71 84 156 117t217 33q428 0 428 -357v-694zM721 375v84h-244
q-91 0 -138.5 -39t-47.5 -111q0 -147 190 -147q67 0 112 11.5t83 47.5q45 45 45 154zM632 1227h-157l-228 332h232z" />
    <glyph glyph-name="acircumflex" unicode="&#xe2;" horiz-adv-x="1085" 
d="M930 0h-205v94q-57 -57 -119 -81.5t-157 -24.5q-94 0 -163 23.5t-116 70.5q-82 85 -82 223q0 89 41 156.5t121.5 105t195.5 37.5h275v74q0 100 -54 147t-173 47q-87 0 -135.5 -22t-92.5 -78l-137 129q71 84 156 117t217 33q428 0 428 -357v-694zM721 375v84h-244
q-91 0 -138.5 -39t-47.5 -111q0 -147 190 -147q67 0 112 11.5t83 47.5q45 45 45 154zM878 1227h-174l-178 198l-178 -198h-174l264 329h176z" />
    <glyph glyph-name="adieresis" unicode="&#xe4;" horiz-adv-x="1085" 
d="M930 0h-205v94q-57 -57 -119 -81.5t-157 -24.5q-94 0 -163 23.5t-116 70.5q-82 85 -82 223q0 89 41 156.5t121.5 105t195.5 37.5h275v74q0 100 -54 147t-173 47q-87 0 -135.5 -22t-92.5 -78l-137 129q71 84 156 117t217 33q428 0 428 -357v-694zM721 375v84h-244
q-91 0 -138.5 -39t-47.5 -111q0 -147 190 -147q67 0 112 11.5t83 47.5q45 45 45 154zM866 1346q0 -47 -33 -82t-82 -35q-46 0 -81 35t-35 82t35 80.5t81 33.5q48 0 81.5 -33.5t33.5 -80.5zM417 1346q0 -47 -34 -82t-82 -35t-81.5 35t-33.5 82q0 46 34 80t81 34t81.5 -33.5
t34.5 -80.5z" />
    <glyph glyph-name="atilde" unicode="&#xe3;" horiz-adv-x="1085" 
d="M930 0h-205v94q-57 -57 -119 -81.5t-157 -24.5q-94 0 -163 23.5t-116 70.5q-82 85 -82 223q0 89 41 156.5t121.5 105t195.5 37.5h275v74q0 100 -54 147t-173 47q-87 0 -135.5 -22t-92.5 -78l-137 129q71 84 156 117t217 33q428 0 428 -357v-694zM721 375v84h-244
q-91 0 -138.5 -39t-47.5 -111q0 -147 190 -147q67 0 112 11.5t83 47.5q45 45 45 154zM872 1366q-44 -44 -80 -69t-66.5 -34.5t-66.5 -9.5q-41 0 -73.5 10.5t-79.5 36.5q-66 39 -115 39q-31 0 -55.5 -11t-63.5 -50l-98 96q64 64 112 88.5t101 24.5q69 0 153 -49
q64 -39 113 -39q29 0 56 12.5t65 50.5z" />
    <glyph glyph-name="aring" unicode="&#xe5;" horiz-adv-x="1085" 
d="M930 0h-205v94q-57 -57 -119 -81.5t-157 -24.5q-94 0 -163 23.5t-116 70.5q-82 85 -82 223q0 89 41 156.5t121.5 105t195.5 37.5h275v74q0 100 -54 147t-173 47q-87 0 -135.5 -22t-92.5 -78l-137 129q71 84 156 117t217 33q428 0 428 -357v-694zM721 375v84h-244
q-91 0 -138.5 -39t-47.5 -111q0 -147 190 -147q67 0 112 11.5t83 47.5q45 45 45 154zM782 1436q0 -69 -34.5 -128t-93.5 -93.5t-128 -34.5t-128 34.5t-93.5 93.5t-34.5 128t34.5 128t93.5 93.5t128 34.5t128 -34.5t93.5 -93.5t34.5 -128zM657 1436q0 54 -37.5 91.5
t-93.5 37.5q-55 0 -93 -38t-38 -91q0 -52 38.5 -90.5t92.5 -38.5q55 0 93 38t38 91z" />
    <glyph glyph-name="ccedilla" unicode="&#xe7;" horiz-adv-x="999" 
d="M918 135q-47 -50 -100 -83.5t-112 -48.5t-131 -15q-122 0 -227.5 54t-170 174t-64.5 304q0 141 38 243t103 166t148 93t173 29q110 0 190.5 -34t152.5 -112l-144 -139q-48 54 -92 76t-107 22q-122 0 -192 -92q-34 -43 -47.5 -101t-13.5 -151q0 -175 61 -254
q70 -92 192 -92q61 0 106 22.5t93 75.5zM653 -131l-104 -301h-207l143 301h168z" />
    <glyph glyph-name="eacute" unicode="&#xe9;" horiz-adv-x="1104" 
d="M993 459h-674q0 -91 31 -155.5t89.5 -100t144.5 -35.5t139 24t113 82l133 -124q-85 -85 -172 -123.5t-217 -38.5q-100 0 -185.5 29t-148.5 92t-98 165t-35 246q0 167 54.5 286t153.5 182t232 63q136 0 236 -63t152 -176.5t52 -260.5v-92zM786 604q-3 81 -28 141t-78.5 96
t-126.5 36q-72 0 -126.5 -36t-80.5 -96q-14 -32 -18.5 -56.5t-8.5 -84.5h467zM838 1559l-228 -332h-157l153 332h232z" />
    <glyph glyph-name="egrave" unicode="&#xe8;" horiz-adv-x="1104" 
d="M993 459h-674q0 -91 31 -155.5t89.5 -100t144.5 -35.5t139 24t113 82l133 -124q-85 -85 -172 -123.5t-217 -38.5q-100 0 -185.5 29t-148.5 92t-98 165t-35 246q0 167 54.5 286t153.5 182t232 63q136 0 236 -63t152 -176.5t52 -260.5v-92zM786 604q-3 81 -28 141t-78.5 96
t-126.5 36q-72 0 -126.5 -36t-80.5 -96q-14 -32 -18.5 -56.5t-8.5 -84.5h467zM665 1227h-157l-228 332h232z" />
    <glyph glyph-name="ecircumflex" unicode="&#xea;" horiz-adv-x="1104" 
d="M993 459h-674q0 -91 31 -155.5t89.5 -100t144.5 -35.5t139 24t113 82l133 -124q-85 -85 -172 -123.5t-217 -38.5q-100 0 -185.5 29t-148.5 92t-98 165t-35 246q0 167 54.5 286t153.5 182t232 63q136 0 236 -63t152 -176.5t52 -260.5v-92zM786 604q-3 81 -28 141t-78.5 96
t-126.5 36q-72 0 -126.5 -36t-80.5 -96q-14 -32 -18.5 -56.5t-8.5 -84.5h467zM911 1227h-174l-178 198l-178 -198h-174l264 329h176z" />
    <glyph glyph-name="edieresis" unicode="&#xeb;" horiz-adv-x="1104" 
d="M993 459h-674q0 -91 31 -155.5t89.5 -100t144.5 -35.5t139 24t113 82l133 -124q-85 -85 -172 -123.5t-217 -38.5q-100 0 -185.5 29t-148.5 92t-98 165t-35 246q0 167 54.5 286t153.5 182t232 63q136 0 236 -63t152 -176.5t52 -260.5v-92zM786 604q-3 81 -28 141t-78.5 96
t-126.5 36q-72 0 -126.5 -36t-80.5 -96q-14 -32 -18.5 -56.5t-8.5 -84.5h467zM899 1346q0 -47 -33 -82t-82 -35q-46 0 -81 35t-35 82t35 80.5t81 33.5q48 0 81.5 -33.5t33.5 -80.5zM450 1346q0 -47 -34 -82t-82 -35t-81.5 35t-33.5 82q0 46 34 80t81 34t81.5 -33.5
t34.5 -80.5z" />
    <glyph glyph-name="iacute" unicode="&#xed;" horiz-adv-x="541" 
d="M375 0h-209v1038h209v-1038zM521 1559l-228 -332h-157l153 332h232z" />
    <glyph glyph-name="igrave" unicode="&#xec;" horiz-adv-x="541" 
d="M375 0h-209v1038h209v-1038zM415 1227h-157l-228 332h232z" />
    <glyph glyph-name="icircumflex" unicode="&#xee;" horiz-adv-x="541" 
d="M375 0h-209v1038h209v-1038zM618 1227h-174l-178 198l-178 -198h-174l264 329h176z" />
    <glyph glyph-name="idieresis" unicode="&#xef;" horiz-adv-x="541" 
d="M375 0h-209v1038h209v-1038zM606 1346q0 -47 -33 -82t-82 -35q-46 0 -81 35t-35 82t35 80.5t81 33.5q48 0 81.5 -33.5t33.5 -80.5zM157 1346q0 -47 -34 -82t-82 -35t-81.5 35t-33.5 82q0 46 34 80t81 34t81.5 -33.5t34.5 -80.5z" />
    <glyph glyph-name="ntilde" unicode="&#xf1;" horiz-adv-x="1163" 
d="M1008 0h-209v633q0 78 -27.5 130t-74.5 76.5t-107 24.5q-94 0 -154.5 -58.5t-60.5 -172.5v-633h-209v1038h205v-104q52 57 125 87t151 30q159 0 256 -95q105 -101 105 -292v-664zM934 1366q-44 -44 -80 -69t-66.5 -34.5t-66.5 -9.5q-41 0 -73.5 10.5t-79.5 36.5
q-66 39 -115 39q-31 0 -55.5 -11t-63.5 -50l-98 96q64 64 112 88.5t101 24.5q69 0 153 -49q64 -39 113 -39q29 0 56 12.5t65 50.5z" />
    <glyph glyph-name="oacute" unicode="&#xf3;" horiz-adv-x="1100" 
d="M983 520q0 -144 -26 -240t-97 -169q-118 -123 -311 -123q-191 0 -309 123q-70 73 -96.5 169.5t-26.5 239.5q0 140 27 238t96 170q34 36 79 63t104.5 43.5t125.5 16.5q103 0 181 -34t130 -89q70 -73 96.5 -169.5t26.5 -238.5zM774 520q0 102 -14 171.5t-58 113.5
q-57 59 -153 59q-93 0 -152 -59q-43 -44 -57 -113.5t-14 -171.5q0 -101 14 -170.5t57 -113.5q62 -62 152 -62q93 0 153 62q44 44 58 113.5t14 170.5zM828 1559l-228 -332h-157l153 332h232z" />
    <glyph glyph-name="ograve" unicode="&#xf2;" horiz-adv-x="1100" 
d="M983 520q0 -144 -26 -240t-97 -169q-118 -123 -311 -123q-191 0 -309 123q-70 73 -96.5 169.5t-26.5 239.5q0 140 27 238t96 170q34 36 79 63t104.5 43.5t125.5 16.5q103 0 181 -34t130 -89q70 -73 96.5 -169.5t26.5 -238.5zM774 520q0 102 -14 171.5t-58 113.5
q-57 59 -153 59q-93 0 -152 -59q-43 -44 -57 -113.5t-14 -171.5q0 -101 14 -170.5t57 -113.5q62 -62 152 -62q93 0 153 62q44 44 58 113.5t14 170.5zM641 1227h-157l-228 332h232z" />
    <glyph glyph-name="ocircumflex" unicode="&#xf4;" horiz-adv-x="1100" 
d="M983 520q0 -144 -26 -240t-97 -169q-118 -123 -311 -123q-191 0 -309 123q-70 73 -96.5 169.5t-26.5 239.5q0 140 27 238t96 170q34 36 79 63t104.5 43.5t125.5 16.5q103 0 181 -34t130 -89q70 -73 96.5 -169.5t26.5 -238.5zM774 520q0 102 -14 171.5t-58 113.5
q-57 59 -153 59q-93 0 -152 -59q-43 -44 -57 -113.5t-14 -171.5q0 -101 14 -170.5t57 -113.5q62 -62 152 -62q93 0 153 62q44 44 58 113.5t14 170.5zM901 1227h-174l-178 198l-178 -198h-174l264 329h176z" />
    <glyph glyph-name="odieresis" unicode="&#xf6;" horiz-adv-x="1100" 
d="M983 520q0 -144 -26 -240t-97 -169q-118 -123 -311 -123q-191 0 -309 123q-70 73 -96.5 169.5t-26.5 239.5q0 140 27 238t96 170q34 36 79 63t104.5 43.5t125.5 16.5q103 0 181 -34t130 -89q70 -73 96.5 -169.5t26.5 -238.5zM774 520q0 102 -14 171.5t-58 113.5
q-57 59 -153 59q-93 0 -152 -59q-43 -44 -57 -113.5t-14 -171.5q0 -101 14 -170.5t57 -113.5q62 -62 152 -62q93 0 153 62q44 44 58 113.5t14 170.5zM889 1346q0 -47 -33 -82t-82 -35q-46 0 -81 35t-35 82t35 80.5t81 33.5q48 0 81.5 -33.5t33.5 -80.5zM440 1346
q0 -47 -34 -82t-82 -35t-81.5 35t-33.5 82q0 46 34 80t81 34t81.5 -33.5t34.5 -80.5z" />
    <glyph glyph-name="otilde" unicode="&#xf5;" horiz-adv-x="1100" 
d="M983 520q0 -144 -26 -240t-97 -169q-118 -123 -311 -123q-191 0 -309 123q-70 73 -96.5 169.5t-26.5 239.5q0 140 27 238t96 170q34 36 79 63t104.5 43.5t125.5 16.5q103 0 181 -34t130 -89q70 -73 96.5 -169.5t26.5 -238.5zM774 520q0 102 -14 171.5t-58 113.5
q-57 59 -153 59q-93 0 -152 -59q-43 -44 -57 -113.5t-14 -171.5q0 -101 14 -170.5t57 -113.5q62 -62 152 -62q93 0 153 62q44 44 58 113.5t14 170.5zM895 1366q-44 -44 -80 -69t-66.5 -34.5t-66.5 -9.5q-41 0 -73.5 10.5t-79.5 36.5q-66 39 -115 39q-31 0 -55.5 -11
t-63.5 -50l-98 96q64 64 112 88.5t101 24.5q69 0 153 -49q64 -39 113 -39q29 0 56 12.5t65 50.5z" />
    <glyph glyph-name="uacute" unicode="&#xfa;" horiz-adv-x="1163" 
d="M997 0h-204v104q-53 -56 -125.5 -86t-151.5 -30q-157 0 -256 94q-57 56 -80.5 127.5t-23.5 165.5v663h209v-632q0 -116 58 -174t150 -58q94 0 154.5 58.5t60.5 173.5v632h209v-1038zM854 1559l-228 -332h-157l153 332h232z" />
    <glyph glyph-name="ugrave" unicode="&#xf9;" horiz-adv-x="1163" 
d="M997 0h-204v104q-53 -56 -125.5 -86t-151.5 -30q-157 0 -256 94q-57 56 -80.5 127.5t-23.5 165.5v663h209v-632q0 -116 58 -174t150 -58q94 0 154.5 58.5t60.5 173.5v632h209v-1038zM681 1227h-157l-228 332h232z" />
    <glyph glyph-name="ucircumflex" unicode="&#xfb;" horiz-adv-x="1163" 
d="M997 0h-204v104q-53 -56 -125.5 -86t-151.5 -30q-157 0 -256 94q-57 56 -80.5 127.5t-23.5 165.5v663h209v-632q0 -116 58 -174t150 -58q94 0 154.5 58.5t60.5 173.5v632h209v-1038zM927 1227h-174l-178 198l-178 -198h-174l264 329h176z" />
    <glyph glyph-name="udieresis" unicode="&#xfc;" horiz-adv-x="1163" 
d="M997 0h-204v104q-53 -56 -125.5 -86t-151.5 -30q-157 0 -256 94q-57 56 -80.5 127.5t-23.5 165.5v663h209v-632q0 -116 58 -174t150 -58q94 0 154.5 58.5t60.5 173.5v632h209v-1038zM915 1346q0 -47 -33 -82t-82 -35q-46 0 -81 35t-35 82t35 80.5t81 33.5
q48 0 81.5 -33.5t33.5 -80.5zM466 1346q0 -47 -34 -82t-82 -35t-81.5 35t-33.5 82q0 46 34 80t81 34t81.5 -33.5t34.5 -80.5z" />
    <glyph glyph-name="dagger" unicode="&#x2020;" horiz-adv-x="1210" 
d="M1077 874h-368v-874h-209v874h-367v187h367v397h209v-397h368v-187z" />
    <glyph glyph-name="degree" unicode="&#xb0;" horiz-adv-x="965" 
d="M840 1124q0 -95 -48 -177.5t-132 -130.5t-179 -48q-73 0 -136.5 27t-114.5 78t-78 114.5t-27 136.5q0 95 48 179t130.5 132t177.5 48q96 0 179 -48.5t131.5 -131.5t48.5 -179zM668 1124q0 80 -54.5 135.5t-132.5 55.5t-131 -55.5t-53 -135.5q0 -79 53.5 -133.5
t130.5 -54.5t132 54t55 134z" />
    <glyph glyph-name="cent" unicode="&#xa2;" horiz-adv-x="1020" 
d="M940 377q-64 -68 -133 -104t-156 -48v-225h-164v227q-110 18 -195 84t-132 178.5t-47 260.5q0 149 47 260.5t132.5 177.5t194.5 84v186h164v-184q87 -10 155 -45.5t134 -106.5l-139 -135q-74 84 -168 98v-671q49 7 89 31t79 67zM506 418v663q-69 -14 -119 -80
q-34 -47 -49.5 -107t-15.5 -144q0 -87 15.5 -146.5t47.5 -105.5q49 -65 121 -80z" />
    <glyph glyph-name="sterling" unicode="&#xa3;" horiz-adv-x="1155" 
d="M1057 0h-842v641h-127v160h127v196q0 148 64.5 254.5t176 162.5t246.5 56q114 0 197.5 -33t157.5 -108l-148 -145q-43 45 -87.5 66.5t-119.5 21.5q-81 0 -140.5 -33.5t-91.5 -99t-32 -158.5v-180h264v-160h-264v-442h619v-199z" />
    <glyph glyph-name="section" unicode="&#xa7;" horiz-adv-x="1112" 
d="M967 541q0 -110 -59 -194t-140 -126q82 -36 131 -107t49 -182q0 -112 -53.5 -195t-142.5 -126t-195 -43q-163 0 -277 89t-120 259h205q6 -76 57 -119t135 -43q86 0 136 46t50 126q0 60 -38.5 107.5t-120.5 72.5l-144 44q-288 87 -288 380q0 111 59.5 196t138.5 124
q-83 41 -127.5 105t-44.5 169q0 97 45.5 175.5t132 124.5t203.5 46q116 0 203 -42.5t133 -119t49 -175.5h-201q-11 155 -184 155q-86 0 -133 -41t-47 -117q0 -119 153 -165l144 -43q291 -90 291 -381zM762 535q0 106 -60 163q-60 58 -143 58q-90 0 -145 -58
q-58 -61 -58 -163q0 -100 58 -162q55 -58 145 -58t143 58q60 64 60 162z" />
    <glyph glyph-name="bullet" unicode="&#x2022;" horiz-adv-x="1049" 
d="M858 684q0 -90 -45 -167.5t-122.5 -122t-166.5 -44.5q-66 0 -127.5 26.5t-107.5 72.5t-72.5 107.5t-26.5 127.5t26.5 128.5t72 108t106 71.5t129.5 26q89 0 166.5 -44.5t122.5 -122t45 -167.5z" />
    <glyph glyph-name="paragraph" unicode="&#xb6;" horiz-adv-x="1305" 
d="M1114 -420h-209v1680h-221v-1680h-209v1069q-82 0 -154 31.5t-127.5 88.5t-85.5 131t-30 151q0 121 56.5 213t162 143t242.5 51h575v-1878z" />
    <glyph glyph-name="germandbls" unicode="&#xdf;" horiz-adv-x="1157" 
d="M1026 311q0 -153 -84 -231q-86 -80 -233 -80h-109v178h66q35 0 59.5 8t46.5 27q43 34 43 117v319q0 75 -37 109q-39 39 -106 39h-72v166h64q67 0 109 40t42 113q0 75 -51 123q-52 49 -166 49q-221 0 -221 -231v-1057h-211v1069q0 131 55 222.5t154 136.5t229 45
q122 0 216.5 -38t149 -117t54.5 -196q0 -156 -127 -237q67 -34 98 -87t31 -149v-338z" />
    <glyph glyph-name="registered" unicode="&#xae;" horiz-adv-x="1765" 
d="M1624 729q0 -149 -58 -286t-159 -238t-238 -159t-286 -58t-285.5 57.5t-238.5 159t-160 238.5t-58 286t58 286t160 238.5t238.5 159t285.5 57.5t286 -58t238 -159t159 -238t58 -286zM1475 729q0 165 -78.5 304t-214.5 219.5t-299 80.5q-124 0 -232 -46t-190 -129.5
t-127 -194.5t-45 -234q0 -166 79 -304.5t215 -219t300 -80.5q163 0 299 80.5t214.5 219.5t78.5 304zM1204 330h-166l-164 317h-102v-317h-147v800h301q74 0 133 -33.5t92 -90t33 -121.5q0 -81 -43.5 -137t-114.5 -80zM1038 885q0 52 -36.5 86.5t-94.5 34.5h-135v-242h135
q58 0 94.5 34.5t36.5 86.5z" />
    <glyph glyph-name="copyright" unicode="&#xa9;" horiz-adv-x="1765" 
d="M1624 729q0 -149 -58 -286t-159 -238t-238 -159t-286 -58t-285.5 57.5t-238.5 159t-160 238.5t-58 286t58 286t160 238.5t238.5 159t285.5 57.5t286 -58t238 -159t159 -238t58 -286zM1475 729q0 165 -79.5 304.5t-215.5 218.5t-297 79q-163 0 -298.5 -79.5t-214.5 -218.5
t-79 -304t79 -304t214.5 -218.5t298.5 -79.5q161 0 297 79t215.5 218.5t79.5 304.5zM1163 426q-62 -56 -123 -81.5t-145 -25.5q-107 0 -191.5 50t-130 143.5t-45.5 216.5q0 94 27 170.5t74 129t116 81.5t150 29q84 0 144 -25.5t124 -81.5l-94 -96q-45 41 -84 56.5t-90 15.5
q-111 0 -166 -75.5t-55 -203.5q0 -127 55 -202.5t166 -75.5q51 0 89.5 15.5t84.5 55.5z" />
    <glyph glyph-name="trademark" unicode="&#x2122;" horiz-adv-x="1808" 
d="M1683 584h-157v571l-185 -367h-145l-184 367v-571h-158v874h158l256 -497l258 497h157v-874zM709 1317h-236v-733h-156v733h-233v141h625v-141z" />
    <glyph glyph-name="acute" unicode="&#xb4;" 
d="M791 1559l-228 -332h-157l153 332h232z" />
    <glyph glyph-name="dieresis" unicode="&#xa8;" 
d="M852 1346q0 -47 -33 -82t-82 -35q-46 0 -81 35t-35 82t35 80.5t81 33.5q48 0 81.5 -33.5t33.5 -80.5zM403 1346q0 -47 -34 -82t-82 -35t-81.5 35t-33.5 82q0 46 34 80t81 34t81.5 -33.5t34.5 -80.5z" />
    <glyph glyph-name="notequal" horiz-adv-x="1169" 
d="M1065 272h-621l-211 -245l-129 104l125 141h-125v195h283l180 203h-463v194h619l213 246l129 -104l-125 -142h125v-194h-283l-180 -203h463v-195z" />
    <glyph glyph-name="AE" unicode="&#xc6;" horiz-adv-x="1950" 
d="M1837 0h-932v332h-481l-172 -332h-242l766 1458h1061v-198h-711v-429h607v-198h-607v-434h711v-199zM905 520v740l-385 -740h385z" />
    <glyph glyph-name="Oslash" unicode="&#xd8;" horiz-adv-x="1335" 
d="M1186 729q0 -173 -6.5 -264.5t-36.5 -172t-96 -149.5q-157 -155 -385 -155q-132 0 -244 55l-64 -133h-168l105 221l-6 6l-6 6q-68 70 -98 149t-37 171.5t-7 265.5q0 133 3.5 211t16 143t41 121.5t81.5 110.5q155 155 383 155q133 0 245 -55l62 133h170l-107 -221l15 -12
q67 -70 96.5 -149.5t36 -171.5t6.5 -265zM825 1227q-76 45 -163 45q-62 0 -119.5 -24t-96.5 -66q-53 -59 -69.5 -147t-16.5 -306q0 -167 9 -253t32 -136zM965 729q0 169 -8.5 255t-32.5 134l-424 -887q72 -45 162 -45q132 0 217 90q36 39 54.5 89t25 136t6.5 228z" />
    <glyph glyph-name="infinity" horiz-adv-x="1700" 
d="M1575 565q0 -101 -43 -182.5t-124 -127.5t-191 -46q-103 0 -189.5 49t-177.5 154q-62 -72 -117 -115t-118 -66.5t-132 -23.5q-165 0 -261.5 102t-96.5 256q0 155 96 257t262 102q103 0 192 -51t175 -154q89 105 175.5 155t191.5 50q84 0 151 -27t112.5 -75t70 -114
t24.5 -143zM1374 561q0 72 -46 116t-116 44q-57 0 -103.5 -37t-119.5 -123q73 -86 119.5 -124t103.5 -38q69 0 115.5 45.5t46.5 116.5zM711 561q-73 86 -120 124t-106 38q-69 0 -114 -44t-45 -118q0 -46 21 -84t57.5 -58t80.5 -20q58 0 106.5 39.5t119.5 122.5z" />
    <glyph glyph-name="plusminus" unicode="&#xb1;" horiz-adv-x="1092" 
d="M987 647h-344v-346h-194v346h-345v195h345v344h194v-344h344v-195zM987 0h-883v195h883v-195z" />
    <glyph glyph-name="lessequal" horiz-adv-x="2103" 
d="M1788 1096l-1077 -1080l997 2l-188 -186h-1137v1135l188 188l-2 -997l1080 1079z" />
    <glyph glyph-name="greaterequal" horiz-adv-x="2103" 
d="M1718 -168h-1134l-189 186l998 -2l-1080 1080l142 141l1079 -1079l-4 997l188 -190v-1133z" />
    <glyph glyph-name="yen" unicode="&#xa5;" horiz-adv-x="1114" 
d="M1102 1458l-299 -594h178v-159h-260l-53 -105v-106h313v-160h-313v-334h-222v334h-313v160h313v106l-53 105h-260v159h178l-301 594h242l307 -643l303 643h240z" />
    <glyph glyph-name="mu" unicode="&#xb5;" horiz-adv-x="1165" 
d="M997 0h-204v104q-108 -116 -275 -116q-94 0 -153 51v-459h-209v1458h209v-632q0 -115 59 -173.5t151 -58.5q94 0 153.5 58.5t59.5 173.5v632h209v-1038z" />
    <glyph glyph-name="partialdiff" horiz-adv-x="1124" 
d="M958 510q0 -95 -10 -165.5t-36 -130.5t-70 -105q-114 -121 -299 -121q-189 0 -301 121q-47 48 -72.5 107t-35 129t-9.5 165q0 99 10 169t35 129t72 107q111 117 288 117q70 0 122.5 -17.5t97.5 -68.5v96q0 63 -24.5 119.5t-79.5 93.5t-140 37q-74 0 -123 -20t-102 -70
l-131 131q53 50 107 80.5t116 43.5t141 13q144 0 243.5 -58t150 -162.5t50.5 -243.5v-496zM750 510q0 206 -66 276q-60 60 -141 60q-84 0 -144 -60q-40 -43 -52.5 -112t-12.5 -164q0 -96 12 -164t53 -113q61 -59 144 -59q80 0 141 59q40 43 53 111t13 166z" />
    <glyph glyph-name="summation" horiz-adv-x="1130" 
d="M1040 -420h-942v180l400 832l-396 784v180h932v-198h-674l330 -666v-205l-336 -708h686v-199z" />
    <glyph glyph-name="product" horiz-adv-x="1413" 
d="M1225 -420h-224v1780h-589v-1780h-222v1976h1035v-1976z" />
    <glyph glyph-name="pi" horiz-adv-x="1210" 
d="M1030 0h-205v844h-438v-844h-207v1038h850v-1038z" />
    <glyph glyph-name="integral" horiz-adv-x="887" 
d="M788 1296h-90q-147 0 -147 -151v-1227q0 -153 -90.5 -242.5t-245.5 -89.5h-117v178h90q73 0 109.5 38t36.5 114v1227q0 101 41.5 176.5t118.5 115.5t178 40h116v-179z" />
    <glyph glyph-name="ordfeminine" unicode="&#xaa;" horiz-adv-x="926" 
d="M776 629h-166v73q-45 -45 -94.5 -63t-122.5 -18t-126.5 17t-94.5 56q-66 66 -66 178q0 108 74.5 174t210.5 66h215v57q0 78 -42 115t-136 37q-68 0 -104.5 -17t-73.5 -63l-113 107q57 67 124 92.5t175 25.5q170 0 255 -72t85 -212v-553zM606 928v65h-190
q-71 0 -107.5 -29.5t-36.5 -86.5q0 -113 146 -113q56 0 90 8t63 37q35 31 35 119z" />
    <glyph glyph-name="ordmasculine" unicode="&#xba;" horiz-adv-x="938" 
d="M815 1044q0 -76 -8.5 -133.5t-31 -106.5t-58.5 -85q-94 -98 -248 -98q-152 0 -246 98q-36 36 -58.5 85t-31 106.5t-8.5 133.5t8.5 132.5t31 106t58.5 85.5q94 98 246 98q154 0 248 -98q58 -59 78 -133t20 -191zM643 1044q0 88 -9.5 139.5t-43.5 84.5q-49 47 -121 47
q-70 0 -119 -47q-34 -34 -44.5 -87.5t-10.5 -136.5q0 -81 10.5 -135.5t44.5 -89.5q47 -47 119 -47q74 0 121 47q34 34 43.5 86t9.5 139z" />
    <glyph glyph-name="Omega" horiz-adv-x="1325" 
d="M1186 0h-424v178q99 49 147 123q32 49 44 140.5t12 277.5q0 219 -17 311.5t-69 149.5q-41 43 -97 67.5t-120 24.5q-126 0 -216 -92q-53 -59 -69.5 -150.5t-16.5 -310.5q0 -183 11 -275.5t43 -142.5q48 -74 147 -123v-178h-424v197h144q-58 52 -93 125q-32 73 -41.5 171
t-9.5 236q0 133 3.5 211t16 143t41 121.5t81.5 110.5q155 155 383 155t385 -155q67 -70 96.5 -149.5t36 -171.5t6.5 -265q0 -150 -8 -243t-41 -164q-34 -69 -95 -125h144v-197z" />
    <glyph glyph-name="ae" unicode="&#xe6;" horiz-adv-x="1714" 
d="M1602 459h-674q0 -89 30.5 -154.5t89 -101t144.5 -35.5t139 24t113 82l133 -124q-85 -85 -172 -123.5t-217 -38.5q-247 0 -367 162q-55 -67 -107.5 -100.5t-117.5 -47.5t-147 -14q-96 0 -163.5 23t-115.5 71q-82 85 -82 223q0 89 41 156.5t121.5 105t195.5 37.5h275v74
q0 100 -54 147t-173 47q-87 0 -135.5 -22t-92.5 -78l-137 129q71 84 156 117t217 33q127 0 216.5 -35t135.5 -103q112 138 307 138q135 0 236 -63t153 -176.5t52 -260.5v-92zM1395 604q-3 87 -27 141q-25 60 -79 96t-128 36q-73 0 -125.5 -35.5t-79.5 -96.5
q-13 -29 -19.5 -61t-8.5 -80h467zM721 375v84h-244q-91 0 -138.5 -39t-47.5 -111q0 -147 190 -147q67 0 112 11.5t83 47.5q45 45 45 154z" />
    <glyph glyph-name="oslash" unicode="&#xf8;" horiz-adv-x="1100" 
d="M983 520q0 -144 -26 -240t-97 -169q-118 -123 -311 -123q-119 0 -213 51l-76 -129h-141l119 203q-47 49 -74 110.5t-37 130.5t-10 166q0 140 27 238t96 170q34 36 79 63t104.5 43.5t125.5 16.5q119 0 215 -52l76 129h141l-121 -200q70 -73 96.5 -169.5t26.5 -238.5z
M672 829q-53 35 -123 35q-93 0 -152 -59q-43 -44 -57 -113.5t-14 -171.5q0 -153 30 -223zM774 520q0 153 -31 223l-315 -532q53 -37 121 -37q93 0 153 62q44 44 58 113.5t14 170.5z" />
    <glyph glyph-name="questiondown" unicode="&#xbf;" horiz-adv-x="1047" 
d="M643 911q0 -54 -39.5 -92.5t-93.5 -38.5t-93.5 38.5t-39.5 92.5q0 55 39 94t94 39t94 -39t39 -94zM928 -39q0 -115 -53 -204t-147 -139t-208 -50q-111 0 -205 48t-148 137t-54 208t96 252l158 221q36 51 36 111v61h209v-74q0 -61 -15.5 -106.5t-53.5 -95.5l-160 -215
q-61 -81 -61 -156q0 -86 55 -144.5t143 -58.5q91 0 145 59t54 146h209z" />
    <glyph glyph-name="exclamdown" unicode="&#xa1;" horiz-adv-x="680" 
d="M475 911q0 -54 -39.5 -92.5t-93.5 -38.5t-93.5 38.5t-39.5 92.5q0 55 39 94t94 39t94 -39t39 -94zM469 -420h-254l47 1024h158z" />
    <glyph glyph-name="logicalnot" unicode="&#xac;" horiz-adv-x="1092" 
d="M991 201h-194v288h-699v195h893v-483z" />
    <glyph glyph-name="radical" horiz-adv-x="1188" 
d="M1126 1260h-186l-414 -1260h-172l-344 1038h228l202 -641l334 1061h352v-198z" />
    <glyph glyph-name="florin" unicode="&#x192;" horiz-adv-x="850" 
d="M788 1290h-120q-112 0 -136 -121l-65 -368h207v-160h-236l-186 -1061h-209l186 1061h-168v160h197l68 379q14 78 56.5 143.5t113 105t163.5 39.5h129v-178z" />
    <glyph glyph-name="approxequal" horiz-adv-x="1176" 
d="M1087 778q-92 -92 -156.5 -124.5t-146.5 -32.5q-56 0 -105.5 15t-123.5 50q-96 49 -162 49q-48 0 -83.5 -16.5t-90.5 -71.5l-131 131q90 90 154.5 124t146.5 34q58 0 109.5 -16.5t117.5 -49.5q101 -49 164 -49q46 0 83 16.5t91 71.5zM1087 365q-91 -91 -155 -125.5
t-146 -34.5q-52 0 -104.5 16.5t-124.5 50.5q-98 50 -162 50q-47 0 -83.5 -17.5t-92.5 -73.5l-131 131q93 93 158 126.5t145 33.5q58 0 111.5 -17.5t115.5 -49.5q98 -49 164 -49q47 0 84 18t90 72z" />
    <glyph glyph-name="Delta" horiz-adv-x="1268" 
d="M1255 0h-1245l535 1458h178zM967 188l-330 940l-332 -940h662z" />
    <glyph glyph-name="guillemotleft" unicode="&#xab;" horiz-adv-x="1212" 
d="M1065 86l-471 471l471 469v-252l-221 -217l221 -219v-252zM547 86l-471 471l471 469v-252l-219 -217l219 -219v-252z" />
    <glyph glyph-name="guillemotright" unicode="&#xbb;" horiz-adv-x="1212" 
d="M1139 557l-473 -471v252l219 219l-219 217v252zM621 557l-474 -471v252l222 219l-222 217v252z" />
    <glyph glyph-name="ellipsis" unicode="&#x2026;" horiz-adv-x="1645" 
d="M1503 143q0 -41 -20 -75t-54 -54t-75 -20q-60 0 -105 44t-45 105t44.5 104.5t105.5 43.5q62 0 105.5 -43.5t43.5 -104.5zM971 143q0 -42 -20.5 -76t-54.5 -53.5t-75 -19.5q-62 0 -104.5 43.5t-42.5 105.5t42 105t105 43t106.5 -43.5t43.5 -104.5zM440 143q0 -41 -20 -75
t-54 -54t-75 -20q-60 0 -105 44t-45 105t44.5 104.5t105.5 43.5q62 0 105.5 -43.5t43.5 -104.5z" />
    <glyph glyph-name="nonbreakingspace" unicode="&#xa0;" horiz-adv-x="492" 
 />
    <glyph glyph-name="Agrave" unicode="&#xc0;" horiz-adv-x="1280" 
d="M1264 0h-236l-100 293h-576l-100 -293h-236l535 1458h178zM866 481l-221 647l-227 -647h448zM739 1600h-157l-228 332h232z" />
    <glyph glyph-name="Atilde" unicode="&#xc3;" horiz-adv-x="1280" 
d="M1264 0h-236l-100 293h-576l-100 -293h-236l535 1458h178zM866 481l-221 647l-227 -647h448zM979 1739q-44 -44 -80 -69t-66.5 -34.5t-66.5 -9.5q-41 0 -73.5 10.5t-79.5 36.5q-66 39 -115 39q-31 0 -55.5 -11t-63.5 -50l-98 96q64 64 112 88.5t101 24.5q69 0 153 -49
q64 -39 113 -39q29 0 56 12.5t65 50.5z" />
    <glyph glyph-name="Otilde" unicode="&#xd5;" horiz-adv-x="1323" 
d="M1186 729q0 -173 -6.5 -264.5t-36.5 -172t-96 -149.5q-157 -155 -385 -155t-383 155q-68 70 -98 149t-37 171.5t-7 265.5q0 133 3.5 211t16 143t41 121.5t81.5 110.5q155 155 383 155t385 -155q67 -70 96.5 -149.5t36 -171.5t6.5 -265zM965 729q0 218 -16.5 307
t-69.5 146q-38 41 -96.5 65.5t-120.5 24.5q-63 0 -121.5 -24.5t-96.5 -65.5q-53 -59 -69.5 -147t-16.5 -306q0 -116 3.5 -185.5t13.5 -121.5t24 -81t45 -65q40 -42 97.5 -66t120.5 -24q132 0 217 90q36 39 54.5 89t25 136t6.5 228zM1008 1739q-44 -44 -80 -69t-66.5 -34.5
t-66.5 -9.5q-41 0 -73.5 10.5t-79.5 36.5q-66 39 -115 39q-31 0 -55.5 -11t-63.5 -50l-98 96q64 64 112 88.5t101 24.5q69 0 153 -49q64 -39 113 -39q29 0 56 12.5t65 50.5z" />
    <glyph glyph-name="OE" unicode="&#x152;" horiz-adv-x="2001" 
d="M1888 0h-923v119q-57 -66 -139 -98.5t-169 -32.5q-114 0 -208 37.5t-170 113.5q-68 68 -98 148.5t-37 174t-7 267.5t7 268t37 174t98 148q76 76 170 113.5t208 37.5q195 0 308 -131v119h921v-196h-700v-431h596v-192h-596v-442h702v-197zM965 729q0 218 -16.5 307
t-69.5 146q-38 41 -96.5 65.5t-120.5 24.5t-119.5 -24t-96.5 -66q-53 -59 -69.5 -147t-16.5 -306q0 -116 3.5 -185.5t13.5 -121.5t24 -81t45 -65q85 -90 216 -90q132 0 217 90q36 39 54.5 89t25 136t6.5 228z" />
    <glyph glyph-name="oe" unicode="&#x153;" horiz-adv-x="1765" 
d="M1653 459h-674q0 -89 30.5 -154.5t89 -101t144.5 -35.5t139 24t113 82l133 -124q-52 -53 -109 -90t-122.5 -54.5t-155.5 -17.5q-74 0 -141.5 17.5t-122 54t-94.5 92.5q-50 -76 -137 -120t-197 -44q-191 0 -309 123q-70 73 -96.5 169.5t-26.5 239.5q0 140 27 238t96 170
q34 36 79 63t104.5 43.5t125.5 16.5q112 0 198.5 -43.5t137.5 -122.5q55 82 137 124t190 42q135 0 236 -63t153 -176.5t52 -260.5v-92zM1446 604q-3 87 -27 141q-25 60 -79 96t-128 36q-73 0 -126.5 -36.5t-77.5 -95.5q-15 -34 -21 -63.5t-8 -77.5h467zM774 520
q0 102 -14 171.5t-58 113.5q-57 59 -153 59q-93 0 -152 -59q-43 -44 -57 -113.5t-14 -171.5q0 -101 14 -170.5t57 -113.5q62 -62 152 -62q93 0 153 62q44 44 58 113.5t14 170.5z" />
    <glyph glyph-name="emdash" unicode="&#x2013;" horiz-adv-x="1092" 
d="M987 471h-883v195h883v-195z" />
    <glyph glyph-name="endash" unicode="&#x2014;" horiz-adv-x="1991" 
d="M1853 473h-1716v199h1716v-199z" />
    <glyph glyph-name="quotedblleft" unicode="&#x201c;" horiz-adv-x="940" 
d="M780 1245h-229v213l229 191v-404zM389 1245h-229v213l229 191v-404z" />
    <glyph glyph-name="quotedblright" unicode="&#x201d;" horiz-adv-x="940" 
d="M780 1243l-229 -186v401h229v-215zM389 1243l-229 -186v401h229v-215z" />
    <glyph glyph-name="quoteleft" unicode="&#x2018;" horiz-adv-x="549" 
d="M389 1245h-229v213l229 191v-404z" />
    <glyph glyph-name="quoteright" unicode="&#x2019;" horiz-adv-x="549" 
d="M389 1243l-229 -186v401h229v-215z" />
    <glyph glyph-name="divide" unicode="&#xf7;" horiz-adv-x="1092" 
d="M694 965q0 -61 -44.5 -104.5t-104.5 -43.5t-104 44t-44 104t43.5 104.5t104.5 44.5q41 0 75 -20t54 -54t20 -75zM991 471h-893v195h893v-195zM694 172q0 -41 -20 -75t-54 -54t-75 -20q-61 0 -104.5 44.5t-43.5 104.5q0 61 43.5 105.5t104.5 44.5q42 0 76 -20.5
t53.5 -54.5t19.5 -75z" />
    <glyph glyph-name="lozenge" horiz-adv-x="1315" 
d="M1192 709l-535 -748l-532 748l532 747zM956 709l-299 424l-299 -424l299 -426z" />
    <glyph glyph-name="ydieresis" unicode="&#xff;" horiz-adv-x="958" 
d="M950 1038l-458 -1245q-30 -81 -76 -129q-77 -76 -213 -76h-84v189h53q65 0 96.5 23.5t53.5 86.5l57 162l-363 989h222l247 -731l242 731h223zM819 1346q0 -47 -33 -82t-82 -35q-46 0 -81 35t-35 82t35 80.5t81 33.5q48 0 81.5 -33.5t33.5 -80.5zM370 1346q0 -47 -34 -82
t-82 -35t-81.5 35t-33.5 82q0 46 34 80t81 34t81.5 -33.5t34.5 -80.5z" />
    <glyph glyph-name="Ydieresis" unicode="&#x178;" horiz-adv-x="1114" 
d="M1104 1458l-436 -858v-600h-222v600l-436 858h242l305 -641l305 641h242zM895 1719q0 -47 -33 -82t-82 -35q-46 0 -81 35t-35 82t35 80.5t81 33.5q48 0 81.5 -33.5t33.5 -80.5zM446 1719q0 -47 -34 -82t-82 -35t-81.5 35t-33.5 82q0 46 34 80t81 34t81.5 -33.5
t34.5 -80.5z" />
    <glyph glyph-name="fraction" horiz-adv-x="403" 
d="M629 1458l-686 -1458h-168l686 1458h168z" />
    <glyph glyph-name="currency" unicode="&#xa4;" horiz-adv-x="1362" 
d="M1223 166l-138 -137l-151 151q-115 -78 -254 -78t-254 78l-150 -151l-137 137l150 151q-78 115 -78 254q0 141 78 254l-150 150l137 137l150 -149q110 75 254 75t254 -75l151 149l138 -137l-152 -150q78 -113 78 -254q0 -139 -78 -254zM958 571q0 75 -37.5 139.5
t-102 101t-138.5 36.5q-116 0 -197.5 -80.5t-81.5 -196.5q0 -55 21.5 -106t60.5 -90t90 -60.5t107 -21.5q75 0 139 37t101.5 101.5t37.5 139.5z" />
    <glyph glyph-name="guilsinglleft" unicode="&#x2039;" horiz-adv-x="694" 
d="M547 86l-471 471l471 469v-252l-219 -217l219 -219v-252z" />
    <glyph glyph-name="guilsinglright" unicode="&#x203a;" horiz-adv-x="694" 
d="M621 557l-474 -471v252l222 219l-222 217v252z" />
    <glyph glyph-name="fi" horiz-adv-x="1192" 
d="M1055 1376q0 -55 -41 -95t-94 -40t-93.5 40.5t-40.5 94.5q0 56 39.5 95.5t94.5 39.5t95 -39t40 -96zM1024 0h-209v1020h209v-1020zM606 860h-205v-860h-208v860h-121v160h121v160q0 77 31.5 143t95.5 105.5t157 39.5h129v-178h-92q-113 0 -113 -121v-149h205v-160z" />
    <glyph glyph-name="fl" horiz-adv-x="1282" 
d="M1227 0h-129q-142 0 -213.5 81.5t-71.5 205.5v1171h209v-1159q0 -62 26 -91.5t87 -29.5h92v-178zM608 860h-205v-860h-208v860h-119v160h119v160q0 77 31.5 143t95.5 105.5t157 39.5h129v-178h-92q-113 0 -113 -121v-149h205v-160z" />
    <glyph glyph-name="daggerdbl" unicode="&#x2021;" horiz-adv-x="1210" 
d="M1077 -23h-368v-397h-209v397h-367v189h367v708h-367v187h367v397h209v-397h368v-187h-368v-708h368v-189z" />
    <glyph glyph-name="periodcentered" unicode="&#x2219;" horiz-adv-x="582" 
d="M440 565q0 -41 -20 -75t-54 -54t-75 -20q-60 0 -105 44t-45 105t44.5 104.5t105.5 43.5q62 0 105.5 -43.5t43.5 -104.5z" />
    <glyph glyph-name="quotesinglbase" unicode="&#x201a;" horiz-adv-x="547" 
d="M389 0l-229 -188v403h229v-215z" />
    <glyph glyph-name="quotedblbase" unicode="&#x201e;" horiz-adv-x="942" 
d="M780 0l-229 -188v403h229v-215zM389 0l-229 -188v403h229v-215z" />
    <glyph glyph-name="perthousand" unicode="&#x2030;" horiz-adv-x="2449" 
d="M1606 266q0 -128 -81.5 -204t-205.5 -76t-205.5 76t-81.5 204v207q0 85 37.5 149t104 98t145.5 34t145.5 -34t104 -98t37.5 -149v-207zM1288 1458l-686 -1458h-168l688 1458h166zM692 985q0 -86 -38 -148.5t-102.5 -96t-145.5 -33.5q-82 0 -146.5 33.5t-102.5 96
t-38 148.5v207q0 85 37.5 149t104 98t145.5 34q123 0 204.5 -76.5t81.5 -204.5v-207zM1448 272v195q0 72 -32.5 109.5t-96.5 37.5q-129 0 -129 -147v-195q0 -147 129 -147q64 0 96.5 37.5t32.5 109.5zM535 991v195q0 72 -32.5 109.5t-96.5 37.5q-130 0 -130 -147v-195
q0 -145 130 -145q65 0 97 37t32 108zM2331 266q0 -128 -81.5 -204t-205.5 -76t-205.5 76t-81.5 204v207q0 85 37.5 149t104 98t145.5 34t145.5 -34t104 -98t37.5 -149v-207zM2173 272v195q0 72 -32.5 109.5t-96.5 37.5q-129 0 -129 -147v-195q0 -147 129 -147
q64 0 96.5 37.5t32.5 109.5z" />
    <glyph glyph-name="Acircumflex" unicode="&#xc2;" horiz-adv-x="1280" 
d="M1264 0h-236l-100 293h-576l-100 -293h-236l535 1458h178zM866 481l-221 647l-227 -647h448zM985 1600h-174l-178 198l-178 -198h-174l264 329h176z" />
    <glyph glyph-name="Ecircumflex" unicode="&#xca;" horiz-adv-x="1235" 
d="M1122 0h-932v1458h932v-198h-710v-426h606v-197h-606v-438h710v-199zM989 1600h-174l-178 198l-178 -198h-174l264 329h176z" />
    <glyph glyph-name="Aacute" unicode="&#xc1;" horiz-adv-x="1280" 
d="M1264 0h-236l-100 293h-576l-100 -293h-236l535 1458h178zM866 481l-221 647l-227 -647h448zM912 1932l-228 -332h-157l153 332h232z" />
    <glyph glyph-name="Edieresis" unicode="&#xcb;" horiz-adv-x="1235" 
d="M1122 0h-932v1458h932v-198h-710v-426h606v-197h-606v-438h710v-199zM977 1719q0 -47 -33 -82t-82 -35q-46 0 -81 35t-35 82t35 80.5t81 33.5q48 0 81.5 -33.5t33.5 -80.5zM528 1719q0 -47 -34 -82t-82 -35t-81.5 35t-33.5 82q0 46 34 80t81 34t81.5 -33.5t34.5 -80.5z
" />
    <glyph glyph-name="Egrave" unicode="&#xc8;" horiz-adv-x="1235" 
d="M1122 0h-932v1458h932v-198h-710v-426h606v-197h-606v-438h710v-199zM743 1600h-157l-228 332h232z" />
    <glyph glyph-name="Iacute" unicode="&#xcd;" horiz-adv-x="602" 
d="M412 0h-222v1458h222v-1458zM549 1932l-228 -332h-157l153 332h232z" />
    <glyph glyph-name="Icircumflex" unicode="&#xce;" horiz-adv-x="602" 
d="M412 0h-222v1458h222v-1458zM643 1600h-174l-178 198l-178 -198h-174l264 329h176z" />
    <glyph glyph-name="Idieresis" unicode="&#xcf;" horiz-adv-x="602" 
d="M412 0h-222v1458h222v-1458zM637 1719q0 -47 -33 -82t-82 -35q-46 0 -81 35t-35 82t35 80.5t81 33.5q48 0 81.5 -33.5t33.5 -80.5zM188 1719q0 -47 -34 -82t-82 -35t-81.5 35t-33.5 82q0 46 34 80t81 34t81.5 -33.5t34.5 -80.5z" />
    <glyph glyph-name="Igrave" unicode="&#xcc;" horiz-adv-x="602" 
d="M412 0h-222v1458h222v-1458zM440 1600h-157l-228 332h232z" />
    <glyph glyph-name="Oacute" unicode="&#xd3;" horiz-adv-x="1323" 
d="M1186 729q0 -173 -6.5 -264.5t-36.5 -172t-96 -149.5q-157 -155 -385 -155t-383 155q-68 70 -98 149t-37 171.5t-7 265.5q0 133 3.5 211t16 143t41 121.5t81.5 110.5q155 155 383 155t385 -155q67 -70 96.5 -149.5t36 -171.5t6.5 -265zM965 729q0 218 -16.5 307
t-69.5 146q-38 41 -96.5 65.5t-120.5 24.5q-63 0 -121.5 -24.5t-96.5 -65.5q-53 -59 -69.5 -147t-16.5 -306q0 -116 3.5 -185.5t13.5 -121.5t24 -81t45 -65q40 -42 97.5 -66t120.5 -24q132 0 217 90q36 39 54.5 89t25 136t6.5 228zM941 1932l-228 -332h-157l153 332h232z
" />
    <glyph glyph-name="Ocircumflex" unicode="&#xd4;" horiz-adv-x="1323" 
d="M1186 729q0 -173 -6.5 -264.5t-36.5 -172t-96 -149.5q-157 -155 -385 -155t-383 155q-68 70 -98 149t-37 171.5t-7 265.5q0 133 3.5 211t16 143t41 121.5t81.5 110.5q155 155 383 155t385 -155q67 -70 96.5 -149.5t36 -171.5t6.5 -265zM965 729q0 218 -16.5 307
t-69.5 146q-38 41 -96.5 65.5t-120.5 24.5q-63 0 -121.5 -24.5t-96.5 -65.5q-53 -59 -69.5 -147t-16.5 -306q0 -116 3.5 -185.5t13.5 -121.5t24 -81t45 -65q40 -42 97.5 -66t120.5 -24q132 0 217 90q36 39 54.5 89t25 136t6.5 228zM1014 1600h-174l-178 198l-178 -198h-174
l264 329h176z" />
    <glyph glyph-name="Ograve" unicode="&#xd2;" horiz-adv-x="1323" 
d="M1186 729q0 -173 -6.5 -264.5t-36.5 -172t-96 -149.5q-157 -155 -385 -155t-383 155q-68 70 -98 149t-37 171.5t-7 265.5q0 133 3.5 211t16 143t41 121.5t81.5 110.5q155 155 383 155t385 -155q67 -70 96.5 -149.5t36 -171.5t6.5 -265zM965 729q0 218 -16.5 307
t-69.5 146q-38 41 -96.5 65.5t-120.5 24.5q-63 0 -121.5 -24.5t-96.5 -65.5q-53 -59 -69.5 -147t-16.5 -306q0 -116 3.5 -185.5t13.5 -121.5t24 -81t45 -65q40 -42 97.5 -66t120.5 -24q132 0 217 90q36 39 54.5 89t25 136t6.5 228zM768 1600h-157l-228 332h232z" />
    <glyph glyph-name="Uacute" unicode="&#xda;" horiz-adv-x="1382" 
d="M1214 492q0 -148 -68 -263t-187.5 -178t-268.5 -63q-148 0 -267 63t-187 178t-68 263v966h221v-956q0 -96 37 -167.5t105 -110t159 -38.5t159.5 38.5t106 109.5t37.5 168v956h221v-966zM971 1932l-228 -332h-157l153 332h232z" />
    <glyph glyph-name="Ucircumflex" unicode="&#xdb;" horiz-adv-x="1382" 
d="M1214 492q0 -148 -68 -263t-187.5 -178t-268.5 -63q-148 0 -267 63t-187 178t-68 263v966h221v-956q0 -96 37 -167.5t105 -110t159 -38.5t159.5 38.5t106 109.5t37.5 168v956h221v-966zM1044 1600h-174l-178 198l-178 -198h-174l264 329h176z" />
    <glyph glyph-name="Ugrave" unicode="&#xd9;" horiz-adv-x="1382" 
d="M1214 492q0 -148 -68 -263t-187.5 -178t-268.5 -63q-148 0 -267 63t-187 178t-68 263v966h221v-956q0 -96 37 -167.5t105 -110t159 -38.5t159.5 38.5t106 109.5t37.5 168v956h221v-966zM798 1600h-157l-228 332h232z" />
    <glyph glyph-name="dotlessi" horiz-adv-x="541" 
d="M375 0h-209v1038h209v-1038z" />
    <glyph glyph-name="circumflex" unicode="&#x2c6;" 
d="M864 1227h-174l-178 198l-178 -198h-174l264 329h176z" />
    <glyph glyph-name="tilde" unicode="&#x2dc;" 
d="M858 1366q-44 -44 -80 -69t-66.5 -34.5t-66.5 -9.5q-41 0 -73.5 10.5t-79.5 36.5q-66 39 -115 39q-31 0 -55.5 -11t-63.5 -50l-98 96q64 64 112 88.5t101 24.5q69 0 153 -49q64 -39 113 -39q29 0 56 12.5t65 50.5z" />
    <glyph glyph-name="macron" unicode="&#xaf;" 
d="M829 1274h-634v149h634v-149z" />
    <glyph glyph-name="breve" 
d="M850 1505q-6 -100 -48.5 -166.5t-116 -98.5t-171.5 -32q-150 0 -240.5 73.5t-99.5 223.5h152q9 -69 59.5 -107t128.5 -38q77 0 128 38t60 107h148z" />
    <glyph glyph-name="dotaccent" 
d="M623 1270h-222v186h222v-186z" />
    <glyph glyph-name="ring" 
d="M768 1436q0 -69 -34.5 -128t-93.5 -93.5t-128 -34.5t-128 34.5t-93.5 93.5t-34.5 128t34.5 128t93.5 93.5t128 34.5t128 -34.5t93.5 -93.5t34.5 -128zM643 1436q0 54 -37.5 91.5t-93.5 37.5q-55 0 -93 -38t-38 -91q0 -52 38.5 -90.5t92.5 -38.5q55 0 93 38t38 91z" />
    <glyph glyph-name="cedilla" unicode="&#xb8;" 
d="M653 -131l-104 -301h-207l143 301h168z" />
    <glyph glyph-name="hungarumlaut" 
d="M934 1559l-229 -332h-156l156 332h229zM555 1559l-227 -332h-158l154 332h231z" />
    <glyph glyph-name="ogonek" 
d="M674 -432h-207l-105 301h168z" />
    <glyph glyph-name="caron" 
d="M864 1556l-264 -329h-176l-264 329h174l178 -198l178 198h174z" />
  </font>
</defs>
</svg>
